Торрент файл
скачать торрент магнет ссылка Добавлен: 19 авг 2018, 20:36
Размер: 8.89 ГБ
Сидеров: 17
Личеров: 7
Статус: (salma3)
Автор

СообщениеДобавлено: 19 авг 2018, 20:36 

Не в сети
Супермодератор
Аватара пользователя
Дата регистрации:
15 фев 2012, 16:44
Возраст: 29
Спасибо: 7331 / 2147
Сообщения: 73810
Год выхода: 2018
Жанр: Комедия, приключения, семейный
Режиссер: Раджа Госнелл

В ролях: Уилл Арнетт, Лудакрис, Наташа Лионн, Стэнли Туччи, Джордин Спаркс, Габриэль Иглесиас, Шакил О’Нил, Алан Камминг, Омар Чапарро, Андерс Холм и др.

О фильме: Серьезному детективу предстоит работа с необычным напарником — говорящим псом Максом, который не замолкает ни на минуту и фанатеет от рэпа. Вместе они отправятся в Лас-Вегас, где на элитной выставке собак проворачиваются аферы по перепродаже редких животных. И сядут мошенникам на хвост.




Страна: Великобритания, США
Продолжительность: 01:30:45
Перевод: Дублированный | iTunes

Файл
Качество: BDRip 1080p
Видео: MPEG-4 AVC, 1920x1038, 13000 kbps, 23,976 fps
Звук#1: русский, AC3, 5.1, 48 kHz, 384 kbps | iTunes
Звук#2: английский, AC3, 5.1, 48 kHz, 640 kbps | оригинал
Субтитры: английские

General
Уникальный идентификатор : 219975087440019695339499822020626685860 (0xA57DA929AA0150E6A895B444472B1FA4)
Полное имя : F:TorrentShowDogsBDRip1080p.mkv
Формат : Matroska
Версия формата : Version 4 / Version 2
Размер файла : 8.89 GiB
Продолжительность : 1 h 30 min
Общий поток : 14.0 Mb/s
Дата кодирования : UTC 2018-08-18 22:19:38
Программа кодирования : mkvmerge v9.5.0 ('Quiet Fire') 64bit
Библиотека кодирования : libebml v1.3.4 + libmatroska v1.4.5

Video
Идентификатор : 1
Формат : AVC
Формат/Информация : Advanced Video Codec
Профиль формата : High@L4.1
Настройки формата : CABAC / 4 Ref Frames
Параметр CABAC формата : Yes
Параметр RefFrames формата : 4 frames
Идентификатор кодека : V_MPEG4/ISO/AVC
Продолжительность : 1 h 30 min
Битрейт : 13.0 Mb/s
Ширина : 1 920 pixels
Высота : 1 038 pixels
Соотношение сторон : 1.85:1
Режим частоты кадров : Constant
Частота кадров : 23.976 (24000/1001) FPS
Цветовое пространство : YUV
Субдискретизация насыщенности : 4:2:0
Битовая глубина : 8 bits
Тип развёртки : Progressive
Бит/(Пиксели*Кадры) : 0.272
Размер потока : 8.24 GiB (93%)
Библиотека кодирования : x264 core 155 r2901M 7d0ff22
Настройки программы : cabac=1 / ref=4 / deblock=1:-3:-3 / analyse=0x3:0x113 / me=umh / subme=11 / psy=1 / psy_rd=1.00:0.00 / mixed_ref=1 / me_range=48 / chroma_me=1 / trellis=2 / 8x8dct=1 / cqm=0 / deadzone=21,11 / fast_pskip=0 / chroma_qp_offset=-2 / threads=9 / lookahead_threads=2 / sliced_threads=0 / nr=0 / decimate=0 / interlaced=0 / bluray_compat=0 / constrained_intra=0 / bframes=14 / b_pyramid=2 / b_adapt=2 / b_bias=0 / direct=3 / weightb=1 / open_gop=0 / weightp=2 / keyint=240 / keyint_min=24 / scenecut=40 / intra_refresh=0 / rc_lookahead=120 / rc=2pass / mbtree=0 / bitrate=13000 / ratetol=1.0 / qcomp=0.70 / qpmin=0 / qpmax=69 / qpstep=4 / cplxblur=20.0 / qblur=0.5 / vbv_maxrate=50000 / vbv_bufsize=62500 / nal_hrd=none / filler=0 / ip_ratio=1.40 / pb_ratio=1.30 / aq=3:0.80
Язык : English
Default : Yes
Forced : No

Audio #1
Идентификатор : 2
Формат : AC-3
Формат/Информация : Audio Coding 3
Идентификатор кодека : A_AC3
Продолжительность : 1 h 30 min
Вид битрейта : Constant
Битрейт : 384 kb/s
Каналы : 6 channels
Расположение каналов : Front: L C R, Side: L R, LFE
Частота : 48.0 kHz
Частота кадров : 31.250 FPS (1536 SPF)
Битовая глубина : 16 bits
Метод сжатия : Lossy
Размер потока : 249 MiB (3%)
Язык : Russian
Default : Yes
Forced : No

Audio #2
Идентификатор : 3
Формат : AC-3
Формат/Информация : Audio Coding 3
Идентификатор кодека : A_AC3
Продолжительность : 1 h 30 min
Вид битрейта : Constant
Битрейт : 640 kb/s
Каналы : 6 channels
Расположение каналов : Front: L C R, Side: L R, LFE
Частота : 48.0 kHz
Частота кадров : 31.250 FPS (1536 SPF)
Битовая глубина : 16 bits
Метод сжатия : Lossy
Размер потока : 415 MiB (5%)
Язык : English
Default : No
Forced : No

Text
Идентификатор : 4
Формат : UTF-8
Идентификатор кодека : S_TEXT/UTF8
Идентификатор кодека/Информация : UTF-8 Plain Text
Продолжительность : 1 h 24 min
Битрейт : 92 b/s
ElementCount : 1607
Размер потока : 56.8 KiB (0%)
Язык : English
Default : No
Forced : No

Menu
00:00:00.000 : :Chapter 01
00:06:56.666 : :Chapter 02
00:11:53.671 : :Chapter 03
00:15:24.798 : :Chapter 04
00:18:05.417 : :Chapter 05
00:21:21.488 : :Chapter 06
00:26:12.237 : :Chapter 07
00:29:26.514 : :Chapter 08
00:34:33.112 : :Chapter 09
00:40:10.533 : :Chapter 10
00:45:16.880 : :Chapter 11
00:52:45.245 : :Chapter 12
00:56:24.547 : :Chapter 13
01:00:49.354 : :Chapter 14
01:03:03.488 : :Chapter 15
01:08:05.623 : :Chapter 16
01:11:13.477 : :Chapter 17
01:13:22.981 : :Chapter 18
01:19:36.730 : :Chapter 19
01:23:38.513 : :Chapter 20




_________________
Проголосуй за трекер Открытый торрент трекер - RUS-MEDIA.ORG

Проголосуй Открытый торрент трекер - RUS-MEDIA.ORG


Вернуться к началу
 Профиль Отправить личное сообщение  
 
   Похожие торренты   Автор   Торрент   Размер 
В этой теме нет новых непрочитанных сообщений. Псы под прикрытием / Show Dogs [Комедия, приключения, семейный, 2018] BDRip-AVC, Dub [iTunes]

salma3

0 | 0

1.42 ГБ

В этой теме нет новых непрочитанных сообщений. Псы под прикрытием / Show Dogs [Комедия, приключения, семейный, 2018] BDRip, Dub [iTunes]

salma3

65 | 40

1.45 ГБ

В этой теме нет новых непрочитанных сообщений. Снежные псы / Snow Dogs [комедия, приключения, семейный, 2002] BDRip 1080p, Dub

salma3

0 | 0

10.12 ГБ

В этой теме нет новых непрочитанных сообщений. Так себе каникулы / Old Dogs [Комедия, семейный, 2009] BDRip 1080p, Dub+Sub

salma3

94 | 82

8.27 ГБ

В этой теме нет новых непрочитанных сообщений. Парни со стволами / War Dogs ( драма, комедия, криминал, военный, 2016) BDRip 1080p | 60 FPS | iTunes

marya111

394 | 53

8.27 ГБ

В этой теме нет новых непрочитанных сообщений. Дозор джунглей / Les as de la jungle [Мультфильм, комедия, приключения, семейный, 2017] BDRip 1080p, Dub [iTunes]

salma3

283 | 17

1.99 ГБ

В этой теме нет новых непрочитанных сообщений. Кролик Питер / Peter Rabbit [фэнтези, комедия, приключения, семейный, 2018] BD Remux 1080p, Dub [iTunes]

salma3

9 | 16

19.49 ГБ


Начать новую тему Ответить на тему  [ 1 сообщение ] 




Для Мосгорсуда, Роскомнадзора и рекламодателей:: mosgorsud-torrent[собачка]yandex.ru
cron