Торрент файл
скачать торрент магнет ссылка Добавлен: 14 авг 2018, 20:40
Размер: 6.45 ГБ
Сидеров: 0
Личеров: 0
Статус: (salma3)
Автор

СообщениеДобавлено: 14 авг 2018, 20:40 

Не в сети
Супермодератор
Аватара пользователя
Дата регистрации:
15 фев 2012, 16:44
Возраст: 29
Спасибо: 7328 / 2147
Сообщения: 73638
Год выхода: 2018
Жанр: Комедия
Режиссер: Лорен Миллер

В ролях: Кристен Белл, Сет Роген, Келси Грэммер, Зэк Аппельман, Пол В. Даунс, Бриттани Росс, Джен Заборовски, Ленни Джейкобсон, Уинтер Каллмен, Даниэль Девенпорт, Бретт Гельман

О фильме:
Рейчел - трудоголик. Жених бросил её у алтаря и ей пришлось проводить свой медовый месяц с человеком, которого она не ожидала когда-либо увидеть, бросившим её отцом. Со временем, два малознакомых человека смогли найти утерянные семейные ценности и научиться ценить жизнь. Не без помощи коктейлей с зонтиками.



Страна: США
Продолжительность: 01:43:37
Перевод: Профессиональный (многоголосый, закадровый) | HDrezka Studio

Файл
Кодек: H.264
Качество: WEBRip 1080p | HDrezka Studio
Видео: AVC/H.264, 1920x750, ~8071 kbps, 23.976 fps
Звук:
Аудио 1: AC3, 2 ch, 192 Kbps - Русский
Аудио 2: E-AC3, 6 ch, 640 Kbps - Английский
Субтитры: Русские, английские

Общее
Уникальный идентификатор : 159996997703673558810101281342581766045 (0x785E4D070F020E80B1DC1FABAB1DF79D)
Полное имя : Like Father.2018.NF.WEBRip.1080p.mkv
Формат : Matroska
Версия формата : Version 4 / Version 2
Размер файла : 6,45 Гбайт
Продолжительность : 1 ч. 43 м.
Общий поток : 8905 Кбит/сек
Название фильма : Like Father.2018.NF.WEBRip.1080p
Дата кодирования : UTC 2018-08-14 16:03:46
Программа кодирования : mkvmerge v23.0.0 ('The Bride Said No') 64-bit
Библиотека кодирования : libebml v1.3.6 + libmatroska v1.4.9

Видео
Идентификатор : 1
Формат : AVC
Формат/Информация : Advanced Video Codec
Профиль формата : High@L4.1
Настройки формата : CABAC / 5 Ref Frames
Параметр CABAC формата : Да
Параметр RefFrames формата : 5 кадров
Идентификатор кодека : V_MPEG4/ISO/AVC
Продолжительность : 1 ч. 43 м.
Битрейт : 8071 Кбит/сек
Ширина : 1920 пикселей
Высота : 750 пикселей
Соотношение сторон : 2,560
Режим частоты кадров : Постоянный
Частота кадров : 23,976 (24000/1001) кадра/сек
Цветовое пространство : YUV
Субдискретизация насыщенности : 4:2:0
Битовая глубина : 8 бит
Тип развёртки : Прогрессивная
Бит/(Пиксели*Кадры) : 0.234
Размер потока : 5,84 Гбайт (91%)
Библиотека кодирования : x264 core 152 r2851kMod ba24899
Настройки программы : cabac=1 / ref=5 / deblock=1:-3:-3 / analyse=0x3:0x133 / me=umh / subme=10 / psy=1 / fade_compensate=0.00 / psy_rd=1.00:0.00 / mixed_ref=1 / me_range=48 / chroma_me=1 / trellis=2 / 8x8dct=1 / cqm=0 / deadzone=21,11 / fast_pskip=0 / chroma_qp_offset=-2 / threads=12 / lookahead_threads=2 / sliced_threads=0 / nr=0 / decimate=0 / interlaced=0 / bluray_compat=0 / constrained_intra=0 / bframes=8 / b_pyramid=2 / b_adapt=2 / b_bias=0 / direct=3 / weightb=1 / open_gop=0 / weightp=2 / keyint=250 / keyint_min=23 / scenecut=40 / intra_refresh=0 / rc=crf / mbtree=0 / crf=17.0000 / qcomp=0.60 / qpmin=0 / qpmax=69 / qpstep=4 / ip_ratio=1.30 / pb_ratio=1.20 / aq=3:0.80
Язык : English
Default : Да
Forced : Нет

Аудио #1
Идентификатор : 2
Формат : AC-3
Формат/Информация : Audio Coding 3
Идентификатор кодека : A_AC3
Продолжительность : 1 ч. 43 м.
Вид битрейта : Постоянный
Битрейт : 192 Кбит/сек
Каналы : 2 канала
Расположение каналов : Front: L R
Частота : 48,0 КГц
Частота кадров : 31,250 кадров/сек (1536 SPF)
Битовая глубина : 16 бит
Метод сжатия : С потерями
Размер потока : 142 Мбайт (2%)
Заголовок : MVO | HDRezka Studio
Язык : Russian
ServiceKind : Complete Main
Default : Да
Forced : Нет

Аудио #2
Идентификатор : 3
Формат : E-AC-3
Формат/Информация : Enhanced Audio Coding 3
Идентификатор кодека : A_EAC3
Продолжительность : 1 ч. 43 м.
Вид битрейта : Постоянный
Битрейт : 640 Кбит/сек
Каналы : 6 каналов
Расположение каналов : Front: L C R, Side: L R, LFE
Частота : 48,0 КГц
Частота кадров : 187,500 кадров/сек (256 SPF)
Метод сжатия : С потерями
Размер потока : 474 Мбайт (7%)
Язык : English
ServiceKind : Complete Main
Default : Нет
Forced : Нет

Текст #1
Идентификатор : 4
Формат : UTF-8
Идентификатор кодека : S_TEXT/UTF8
Идентификатор кодека/Информация : UTF-8 Plain Text
Продолжительность : 1 ч. 36 м.
Битрейт : 103 бит/сек
ElementCount : 1335
Размер потока : 73,3 Кбайт (0%)
Заголовок : Full (PhysKids)
Язык : Russian
Default : Нет
Forced : Нет

Текст #2
Идентификатор : 5
Формат : UTF-8
Идентификатор кодека : S_TEXT/UTF8
Идентификатор кодека/Информация : UTF-8 Plain Text
Продолжительность : 1 ч. 36 м.
Битрейт : 78 бит/сек
ElementCount : 1577
Размер потока : 55,5 Кбайт (0%)
Язык : English
Default : Нет
Forced : Нет

Текст #3
Идентификатор : 6
Формат : UTF-8
Идентификатор кодека : S_TEXT/UTF8
Идентификатор кодека/Информация : UTF-8 Plain Text
Продолжительность : 1 ч. 36 м.
Битрейт : 91 бит/сек
ElementCount : 1712
Размер потока : 64,8 Кбайт (0%)
Заголовок : SDH
Язык : English
Default : Нет
Forced : Нет


_________________
Проголосуй за трекер Открытый торрент трекер - RUS-MEDIA.ORG

Проголосуй Открытый торрент трекер - RUS-MEDIA.ORG


Вернуться к началу
 Профиль Отправить личное сообщение  
 
   Похожие торренты   Автор   Торрент   Размер 
В этой теме нет новых непрочитанных сообщений. Отец года / Father of the Year [комедия, 2018] WEBRip 1080p, Mvo [GreenРай Studio]

salma3

0 | 0

3.04 ГБ

В этой теме нет новых непрочитанных сообщений. Как отец / Like Father [Комедия, 2018] WEBRip, Mvo

salma3

0 | 0

1.46 ГБ

В этой теме нет новых непрочитанных сообщений. Отец года / Father of the Year [комедия, 2018] WEBRip, Mvo [GreenРай Studio]

salma3

0 | 0

1.37 ГБ

В этой теме нет новых непрочитанных сообщений. Отец года / Father of the Year [Комедия, 2018] WEB-DL 1080p, Mvo

salma3

8 | 5

9.47 ГБ

В этой теме нет новых непрочитанных сообщений. Отец года / Father of the Year (2018) WEBRip 720p, Mvo [GreenРай Studio]

salma3

0 | 0

2.3 ГБ

В этой теме нет новых непрочитанных сообщений. Каков отец, таков и сын / Like Father Like Son [фэнтези, комедия, 1987] WEBRip, Avo

salma3

0 | 0

1.45 ГБ

В этой теме нет новых непрочитанных сообщений. Отец года / Father of the Year [Комедия, 2018] WEB-DL 720p, Mvo

salma3

0 | 0

4.74 ГБ


Начать новую тему Ответить на тему  [ 1 сообщение ] 




Для Мосгорсуда, Роскомнадзора и рекламодателей:: mosgorsud-torrent[собачка]yandex.ru
cron