Торрент файл
скачать торрент магнет ссылка Добавлен: 25 июн 2018, 11:30
Размер: 14.23 ГБ
Сидеров: 3
Личеров: 5
Статус: (salma3)
Автор

СообщениеДобавлено: 25 июн 2018, 11:30 

Не в сети
Супермодератор
Аватара пользователя
Дата регистрации:
15 фев 2012, 16:44
Возраст: 28
Спасибо: 7226 / 2147
Сообщения: 68270
Год выпуска: 2016
Жанр: Триллер
Режиссер: Ориол Паоло

В ролях: Марио Касас, Хосе Коронадо, Барбара Ленни, Ана Вахенер, Франсеск Орелья, Кристиан Валенсиа, Пако Тоус, Бетси Тунес, Давид Сельвас

О фильме:
Молодой бизнесмен Эдриан Дориа просыпается в закрытом изнутри номере отеля рядом с бездыханным телом своей любовницы. Его обвиняют в убийстве, но он, не считая себя виновным, решает воспользоваться услугами Вирджинии Гудман, лучшего в стране специалиста по выходу из самых сложных ситуаций. В течение одной ночи консультант и её клиент будут работать, чтобы найти разумное опровержение обвинению, и, тем самым, высвободить его из тюрьмы.



Страна: Испания
Продолжительность: 01:46:12
Перевод: Дублированный | iTunes
#2: Профессиональный многоголосый | Alex Film

Файл
Качество: BDRip 1080p
Видео: MPEG-4 AVC, 1920x804, 17.5 Mbit/s, 23.976 fps
Аудио #01: 48 kHz, AC3, 5.1, 384 Kbps | iTunes | RUS |
Аудио #02: 48 kHz, AC3, 5.1, 640 Kbps | Профессиональный многоголосый | RUS |
Аудио #03: 48 kHz, AC3, 5.1, 640 Kbps | Оригинал | SPA |
Субтитры: Русские (full), английские

General
Unique ID : 211455103775539286518099336730104578300 (0x9F14C5893F629F3D8A090FB84D2040FC)
Complete name : D:Video111The.Invisible.Guest.2016.D.MVO.BDRip.1080.ExKinoRay.mkv
Format : Matroska
Format version : Version 4 / Version 2
File size : 14.2 GiB
Duration : 1 h 46 min
Overall bit rate : 19.2 Mb/s
Movie name : The Invisible Guest 2016 from ExKinoRay
Encoded date : UTC 2018-06-24 19:51:25
Writing application : mkvmerge v7.3.0 ('Nouages') 64bit built on Oct 22 2014 18:53:34
Writing library : libebml v1.3.0 + libmatroska v1.4.1

Video
ID : 1
Format : AVC
Format/Info : Advanced Video Codec
Format profile : High@L4.1
Format settings : CABAC / 5 Ref Frames
Format settings, CABAC : Yes
Format settings, ReFrames : 5 frames
Codec ID : V_MPEG4/ISO/AVC
Duration : 1 h 46 min
Bit rate : 17.5 Mb/s
Width : 1 920 pixels
Height : 804 pixels
Display aspect ratio : 2.40:1
Frame rate mode : Constant
Frame rate : 23.976 (24000/1001) FPS
Color space : YUV
Chroma subsampling : 4:2:0
Bit depth : 8 bits
Scan type : Progressive
Bits/(Pixel*Frame) : 0.473
Stream size : 13.0 GiB (91%)
Writing library : x264 core 142 r2431+42 c69a006 tMod [8-bit@4:2:0 X86]
Encoding settings : cabac=1 / ref=5 / deblock=1:-3:-3 / analyse=0x3:0x133 / me=umh / subme=10 / psy=1 / fade_compensate=0.00 / psy_rd=1.00:0.00 / mixed_ref=1 / me_range=48 / chroma_me=1 / trellis=2 / 8x8dct=1 / cqm=0 / deadzone=21,11 / fast_pskip=0 / chroma_qp_offset=-2 / threads=12 / lookahead_threads=1 / sliced_threads=0 / nr=0 / decimate=0 / interlaced=0 / bluray_compat=0 / constrained_intra=0 / fgo=0 / bframes=6 / b_pyramid=2 / b_adapt=2 / b_bias=0 / direct=3 / weightb=1 / open_gop=0 / weightp=2 / keyint=230 / keyint_min=22 / scenecut=40 / intra_refresh=0 / rc_lookahead=60 / rc=2pass / mbtree=1 / bitrate=17500 / ratetol=1.0 / qcomp=0.60 / qpmin=0:0:0 / qpmax=69:69:69 / qpstep=4 / cplxblur=20.0 / qblur=0.5 / vbv_maxrate=50000 / vbv_bufsize=50000 / nal_hrd=none / filler=0 / ip_ratio=1.40 / aq=1:1.00 / aq-sensitivity=10.00 / aq-factor=1.00:1.00:1.00 / aq2=0 / aq3=0
Language : English
Default : Yes
Forced : No

Audio #1
ID : 2
Format : AC-3
Format/Info : Audio Coding 3
Codec ID : A_AC3
Duration : 1 h 46 min
Bit rate mode : Constant
Bit rate : 384 kb/s
Channel(s) : 6 channels
Channel positions : Front: L C R, Side: L R, LFE
Sampling rate : 48.0 kHz
Frame rate : 31.250 FPS (1536 SPF)
Bit depth : 16 bits
Compression mode : Lossy
Stream size : 292 MiB (2%)
Title : iTunes
Language : Russian
Service kind : Complete Main
Default : Yes
Forced : Yes

Audio #2
ID : 3
Format : AC-3
Format/Info : Audio Coding 3
Codec ID : A_AC3
Duration : 1 h 46 min
Bit rate mode : Constant
Bit rate : 640 kb/s
Channel(s) : 6 channels
Channel positions : Front: L C R, Side: L R, LFE
Sampling rate : 48.0 kHz
Frame rate : 31.250 FPS (1536 SPF)
Bit depth : 16 bits
Compression mode : Lossy
Stream size : 487 MiB (3%)
Title : MVO
Language : Russian
Service kind : Complete Main
Default : No
Forced : No

Audio #3
ID : 4
Format : AC-3
Format/Info : Audio Coding 3
Codec ID : A_AC3
Duration : 1 h 46 min
Bit rate mode : Constant
Bit rate : 640 kb/s
Channel(s) : 6 channels
Channel positions : Front: L C R, Side: L R, LFE
Sampling rate : 48.0 kHz
Frame rate : 31.250 FPS (1536 SPF)
Bit depth : 16 bits
Compression mode : Lossy
Stream size : 487 MiB (3%)
Title : Original
Language : Spanish
Service kind : Complete Main
Default : No
Forced : No

Text #1
ID : 5
Format : UTF-8
Codec ID : S_TEXT/UTF8
Codec ID/Info : UTF-8 Plain Text
Duration : 1 h 40 min
Bit rate : 108 b/s
Count of elements : 1104
Stream size : 80.1 KiB (0%)
Title : Full
Language : Russian
Default : No
Forced : No

Text #2
ID : 6
Format : UTF-8
Codec ID : S_TEXT/UTF8
Codec ID/Info : UTF-8 Plain Text
Duration : 1 h 39 min
Bit rate : 58 b/s
Count of elements : 1223
Stream size : 42.7 KiB (0%)
Title : Full
Language : English
Default : No
Forced : No

Menu
00:00:00.000 : en:00:00:00.000
00:07:22.942 : en:00:07:22.942
00:13:53.875 : en:00:13:53.875
00:20:23.305 : en:00:20:23.305
00:27:20.138 : en:00:27:20.138
00:32:53.513 : en:00:32:53.513
00:38:25.428 : en:00:38:25.428
00:46:52.977 : en:00:46:52.977
00:56:39.354 : en:00:56:39.354
01:00:23.370 : en:01:00:23.370
01:09:11.397 : en:01:09:11.397
01:16:34.381 : en:01:16:34.381
01:21:11.241 : en:01:21:11.241
01:27:45.093 : en:01:27:45.093
01:35:06.743 : en:01:35:06.743
01:40:37.740 : en:01:40:37.740


Релиз от: Автор релиза:


_________________
Проголосуй за трекер Открытый торрент трекер - RUS-MEDIA.ORG

Проголосуй Открытый торрент трекер - RUS-MEDIA.ORG


Вернуться к началу
 Профиль Отправить личное сообщение  
 
   Похожие торренты   Автор   Торрент   Размер 
В этой теме нет новых непрочитанных сообщений. Невидимый гость / Contratiempo [Триллер, 2016] BDRip 1080p, Dub [iTunes]

salma3

0 | 0

5.48 ГБ

В этой теме нет новых непрочитанных сообщений. Невидимый гость / Contratiempo [Триллер, 2016] BDRip-AVC, Dub [iTunes]

salma3

0 | 0

1.41 ГБ

В этой теме нет новых непрочитанных сообщений. Невидимый гость / Contratiempo [Триллер, 2016] BDRip-AVC, Dub [iTunes]

salma3

0 | 0

2.13 ГБ

В этой теме нет новых непрочитанных сообщений. Невидимый гость / Contratiempo [Триллер, 2016] BDRip, Dub [iTunes]

salma3

0 | 0

747.36 МБ

В этой теме нет новых непрочитанных сообщений. Невидимый гость / Contratiempo [Триллер, 2016] BDRip, Dub [iTunes]

salma3

6 | 3

1.41 ГБ

В этой теме нет новых непрочитанных сообщений. Невидимый гость / Contratiempo [Триллер, 2016] BDRip 720p, Dub [iTunes]

salma3

0 | 0

7.73 ГБ

В этой теме нет новых непрочитанных сообщений. Невидимый гость / Contratiempo [Триллер, 2016] BDRip 1080p, Mvo [AlexFilm]

salma3

818 | 104

13.94 ГБ


Начать новую тему Ответить на тему  [ 1 сообщение ] 




Для Мосгорсуда, Роскомнадзора и рекламодателей:: mosgorsud-torrent[собачка]yandex.ru
cron