Торрент файл
скачать торрент магнет ссылка Добавлен: 22 июн 2018, 20:50
Размер: 16.6 ГБ
Сидеров: 9
Личеров: 9
Статус: (salma3)
Автор

СообщениеДобавлено: 22 июн 2018, 20:50 

Не в сети
Супермодератор
Аватара пользователя
Дата регистрации:
15 фев 2012, 16:44
Возраст: 29
Спасибо: 7331 / 2147
Сообщения: 73810
Год выпуска: 1961
Жанр: Фантастика, приключения
Режиссер: Джордж Пэл / George Pal

В ролях: Сэл Понти, Джойс Тейлор, Джон Долл, Уильям Смит, Эдвард Платт, Фрэнк ДеКова, Берри Крёгер, Эдгар Стели, Джей Новелло

Описание: Фильм рассказывает историю Деметриоса и принцессы Антиллии. Действие происходит 3000 лет назад и затрагивает легендарную Атлантиду. Деметриос — простой греческий рыбак. Плавая в море он спасает девушку, терпящую кораблекрушение. Девушка оказывается принцессой Антилией с Атлантиды, и Деметриос сопровождает Антилию домой на её родину. На Атлантиде Деметриос попадает в рабство. Королевством управляет король, отец Антилии. Но у королевства есть и тайный правитель — злой волшебник, которому подчиняются все в том числе и король. В королевстве добывают особый минерал, который имеет некоторые интересные свойства — минерал прозрачный и может поглощать солнечные лучи, накапливая тепловую энергию, которую в дальнейшем можно использовать. Но этот минерал имеет и одно неожиданное свойство — из кристаллов можно изготовить оружие, которое излучает особый тепловой луч, наподобие лазерного — этот луч в мгновение может разрушить что угодно.



Страна: США
Продолжительность: 01:30:09
Перевод: Авторский (одноголосый закадровый), Александр Кашкин

Файл
Качество: BDRemux 1080p
Контейнер: MKV
Видео: MPEG-4 AVC Video / 1920x1080 / 24895 kbps / 23.976 fps / High Profile 4.1
Аудио #1: Russian: AC3 / 48.0 KHz / 2ch / 192 Kbps - Авторский, А. Кашкин
Аудио #2: English: FLAC / 48.0 KHz / 2ch / 1270 Kbps - Оригинал
Субтитры: Английские
Навигация по главам: Есть



Format : Matroska
Format version : Version 4 / Version 2
File size : 16.6 GiB
Duration : 1 h 30 min
Overall bit rate mode : Variable
Overall bit rate : 26.4 Mb/s
Encoded date : UTC 2017-01-21 16:55:50
Writing application : mkvmerge v8.3.0 ('Over the Horizon') 64bit
Writing library : libebml v1.3.1 + libmatroska v1.4.2
Attachments : poster.jpg

Video
ID : 1
Format : AVC
Format/Info : Advanced Video Codec
Format profile : High@L4.1
Format settings, CABAC : Yes
Format settings, ReFrames : 4 frames
Codec ID : V_MPEG4/ISO/AVC
Duration : 1 h 30 min
Bit rate mode : Variable
Bit rate : 24.9 Mb/s
Maximum bit rate : 35.0 Mb/s
Width : 1 920 pixels
Height : 1 080 pixels
Display aspect ratio : 16:9
Frame rate mode : Constant
Frame rate : 23.976 (24000/1001) FPS
Standard : Component
Color space : YUV
Chroma subsampling : 4:2:0
Bit depth : 8 bits
Scan type : Progressive
Bits/(Pixel*Frame) : 0.501
Stream size : 15.7 GiB (94%)
Default : Yes
Forced : No
Color range : Limited
Color primaries : BT.709
Transfer characteristics : BT.709
Matrix coefficients : BT.709

Audio #1
ID : 2
Format : AC-3
Format/Info : Audio Coding 3
Mode extension : CM (complete main)
Format settings, Endianness : Big
Codec ID : A_AC3
Duration : 1 h 30 min
Bit rate mode : Constant
Bit rate : 192 kb/s
Channel(s) : 2 channels
Channel positions : Front: L R
Sampling rate : 48.0 kHz
Frame rate : 31.250 FPS (1536 spf)
Bit depth : 16 bits
Compression mode : Lossy
Stream size : 124 MiB (1%)
Title : AVO, Кашкин
Language : Russian
Default : Yes
Forced : No

Audio #2
ID : 3
Format : FLAC
Format/Info : Free Lossless Audio Codec
Codec ID : A_FLAC
Duration : 1 h 30 min
Bit rate mode : Variable
Bit rate : 1 270 kb/s
Channel(s) : 2 channels
Channel positions : Front: L R
Sampling rate : 48.0 kHz
Frame rate : 41.667 FPS (1152 spf)
Bit depth : 24 bits
Stream size : 819 MiB (5%)
Writing library : libFLAC 1.3.1 (UTC 2014-11-25)
Language : English
Default : No
Forced : No

Text
ID : 4
Format : UTF-8
Codec ID : S_TEXT/UTF8
Codec ID/Info : UTF-8 Plain Text
Duration : 1 h 29 min
Bit rate : 31 b/s
Count of elements : 705
Stream size : 20.4 KiB (0%)
Language : English
Default : No
Forced : No

Menu
00:00:00.000 : en:00:00:00.000
00:08:19.290 : en:00:08:19.290
00:12:56.693 : en:00:12:56.693
00:20:15.714 : en:00:20:15.714
00:27:36.738 : en:00:27:36.738
00:35:32.672 : en:00:35:32.672
00:41:52.260 : en:00:41:52.260
00:46:56.897 : en:00:46:56.897
00:53:12.731 : en:00:53:12.731
01:02:43.927 : en:01:02:43.927
01:09:49.811 : en:01:09:49.811
01:17:44.034 : en:01:17:44.034


_________________
Проголосуй за трекер Открытый торрент трекер - RUS-MEDIA.ORG

Проголосуй Открытый торрент трекер - RUS-MEDIA.ORG


Вернуться к началу
 Профиль Отправить личное сообщение  
 
   Похожие торренты   Автор   Торрент   Размер 
В этой теме нет новых непрочитанных сообщений. Атлантида: Затерянный мир / Atlantis: The Lost Empire [мультфильм, фантастика, приключения, 2001] BDRip 720p, Dub

salma3

33 | 10

7.31 ГБ

В этой теме нет новых непрочитанных сообщений. Путешествие на дно моря / Voyage to the Bottom of the Sea [Фантастика, Боевик, Приключения, 1961] BDRemux 1080p, Mvo

salma3

0 | 0

30.48 ГБ

В этой теме нет новых непрочитанных сообщений. Nat Geo Wild: Невероятная Африка. Разноцветный континент / Extraordinary Africa. The Continent of Colors (2014) HDTVRip | P1

salma3

0 | 0

315.01 МБ

В этой теме нет новых непрочитанных сообщений. Nat Geo Wild: Невероятная Африка. Разноцветный континент / Extraordinary Africa. The Continent of Colors (2014) HDTVRip-AVC | P1

salma3

0 | 0

423.95 МБ

В этой теме нет новых непрочитанных сообщений. Nat Geo Wild: Невероятная Африка. Разноцветный континент / Extraordinary Africa. The Continent of Colors (2014) HDTV 1080i | P1

salma3

0 | 0

1.11 ГБ

В этой теме нет новых непрочитанных сообщений. Атлантида / Cold Skin [Ужасы, фантастика, триллер, 2017] BDRemux 1080p, Dub [iTunes]

salma3

2 | 7

18 ГБ

В этой теме нет новых непрочитанных сообщений. Динозавр: Тайна затерянного мира / Baby: Secret of the Lost Legend [Фантастика, приключения, семейный, 1985] BDRemux 1080p, Mvo

salma3

0 | 0

15.81 ГБ


Начать новую тему Ответить на тему  [ 1 сообщение ] 




Для Мосгорсуда, Роскомнадзора и рекламодателей:: mosgorsud-torrent[собачка]yandex.ru
cron