Торрент файл
скачать торрент магнет ссылка Добавлен: 22 июн 2018, 20:48
Размер: 1.39 ГБ
Сидеров: 88
Личеров: 13
Статус: (salma3)
Автор

СообщениеДобавлено: 22 июн 2018, 20:48 

Не в сети
Супермодератор
Аватара пользователя
Дата регистрации:
15 фев 2012, 16:44
Возраст: 28
Спасибо: 7224 / 2147
Сообщения: 68128
Год выхода: 2018
Жанр: триллер
Режиссер: Тайлер Перри

В ролях: Тараджи П. Хенсон, Лайрик Бент, Кристл Стюарт, Жасмин Саймон, Даниэль Николет, Нельсон Эстевез, Кендрик Кросс, Джей Хантер, Аджиона Алексус

О фильме:
Верная и любящая жена однажды узнаёт, что её муж давно ведёт двойную жизнь. Обезумевшая от ярости женщина разрабатывает план мести.

Страна: США
Продолжительность: 02:00:28
Перевод: Профессиональный (многоголосый закадровый) HDRezka Studio

Файл
Кодек: H.264
Качество: BDRip-AVC
Видео: MPEG-4 AVC, 888x370 (2.40:1), 23.976 fps, ~1427 kbps avg, 0.181 bit/pixel
Звук: 48 kHz, AC3 Dolby Digital, 2/0 (L,R) ch, ~192 kbps avg
Субтитры: Нет

Семпл

Complete name : D:РаздачаРаздражительность (2018) BDRip-AVC_ivanes20031987.mkv
Format : Matroska
Format version : Version 2
File size : 1.39 GiB
Duration : 2 h 0 min
Overall bit rate : 1 652 kb/s
Movie name : Раздражительность (2018) BDRip-AVC_ivanes20031987
Encoded date : UTC 2018-06-22 15:51:15
Writing application : mkvmerge v4.4.0 ('Die Wiederkehr') сборка от Jan 3 2011 21:40:45
Writing library : libebml v1.0.0 + libmatroska v1.0.0
Cover : Yes
Attachments : cover.png

Video
ID : 1
Format : AVC
Format/Info : Advanced Video Codec
Format profile : High@L4.1
Format settings, CABAC : Yes
Format settings, RefFrames : 14 frames
Codec ID : V_MPEG4/ISO/AVC
Duration : 2 h 0 min
Bit rate : 1 427 kb/s
Width : 888 pixels
Height : 370 pixels
Display aspect ratio : 2.40:1
Frame rate mode : Constant
Frame rate : 23.976 (24000/1001) FPS
Color space : YUV
Chroma subsampling : 4:2:0
Bit depth : 8 bits
Scan type : Progressive
Bits/(Pixel*Frame) : 0.181
Stream size : 1.20 GiB (86%)
Title : Rip by ivanes20031987
Writing library : x264 core 155 r2901 7d0ff22
Encoding settings : cabac=1 / ref=14 / deblock=1:-3:-3 / analyse=0x3:0x113 / me=umh / subme=10 / psy=1 / psy_rd=1.00:0.00 / mixed_ref=1 / me_range=32 / chroma_me=1 / trellis=2 / 8x8dct=1 / cqm=0 / deadzone=21,11 / fast_pskip=0 / chroma_qp_offset=-2 / threads=12 / lookahead_threads=2 / sliced_threads=0 / nr=0 / decimate=0 / interlaced=0 / bluray_compat=0 / constrained_intra=0 / bframes=14 / b_pyramid=2 / b_adapt=2 / b_bias=0 / direct=1 / weightb=1 / open_gop=0 / weightp=2 / keyint=240 / keyint_min=23 / scenecut=40 / intra_refresh=0 / rc_lookahead=60 / rc=crf / mbtree=0 / crf=15.9 / qcomp=0.60 / qpmin=0 / qpmax=69 / qpstep=4 / vbv_maxrate=50000 / vbv_bufsize=62500 / crf_max=0.0 / nal_hrd=none / filler=0 / ip_ratio=1.40 / pb_ratio=1.30 / aq=1:1.00
Default : Yes
Forced : No

Audio
ID : 2
Format : AC-3
Format/Info : Audio Coding 3
Format settings, Endianness : Big
Codec ID : A_AC3
Duration : 2 h 0 min
Bit rate mode : Constant
Bit rate : 192 kb/s
Channel(s) : 2 channels
Channel positions : Front: L R
Sampling rate : 48.0 kHz
Frame rate : 31.250 FPS (1536 SPF)
Bit depth : 16 bits
Compression mode : Lossy
Stream size : 165 MiB (12%)
Title : HDRezka Studio
Language : Russian
Service kind : Complete Main
Default : Yes
Forced : No


_________________
Проголосуй за трекер Открытый торрент трекер - RUS-MEDIA.ORG

Проголосуй Открытый торрент трекер - RUS-MEDIA.ORG


Вернуться к началу
 Профиль Отправить личное сообщение  
 
   Похожие торренты   Автор   Торрент   Размер 
В этой теме нет новых непрочитанных сообщений. Раздражительность / Acrimony [Триллер, 2018] BDRip, Mvo

salma3

0 | 0

1.46 ГБ

В этой теме нет новых непрочитанных сообщений. Раздражительность / Acrimony [Триллер, 2018] WEBRip, Dvo

salma3

0 | 2

1.11 ГБ

В этой теме нет новых непрочитанных сообщений. Раздражительность / Acrimony [Триллер, 2018] BDRemux 1080p, Mvo

salma3

0 | 1

32.14 ГБ

В этой теме нет новых непрочитанных сообщений. Раздражительность / Acrimony [Триллер, 2018] WEBRip 720p, Dvo

salma3

118 | 72

3.48 ГБ

В этой теме нет новых непрочитанных сообщений. Траффик / Traffik [Триллер, 2018] BDRip, Mvo

salma3

0 | 0

1.46 ГБ

В этой теме нет новых непрочитанных сообщений. Траффик / Traffik [Триллер, 2018] BDRip-AVC, Mvo

salma3

0 | 0

1.39 ГБ

В этой теме нет новых непрочитанных сообщений. Не в себе / Unsane [Триллер, ужасы, 2018] BDRip, Mvo

salma3

0 | 0

1.42 ГБ


Начать новую тему Ответить на тему  [ 1 сообщение ] 




Для Мосгорсуда, Роскомнадзора и рекламодателей:: mosgorsud-torrent[собачка]yandex.ru
cron