Торрент файл
скачать торрент магнет ссылка Добавлен: 21 июн 2018, 10:54
Размер: 8.71 ГБ
Сидеров: 89
Личеров: 42
Статус: (salma3)
Автор

СообщениеДобавлено: 21 июн 2018, 10:54 

Не в сети
Супермодератор
Аватара пользователя
Дата регистрации:
15 фев 2012, 16:44
Возраст: 29
Спасибо: 7320 / 2147
Сообщения: 73192
Год выпуска: 2017
Жанр: Фантастика, боевик
Режиссер: Питер Хауит

В ролях: Джина Карано, Сара Троер, Джон Ханна, Алиша Ньютон, Стефани Беннетт, Райан Роббинс, Патрик Сабонгуй, Лувия Петерсен, Патрик Гилмор, Дэниэл Бэйкон

О фильме:
Будущее, на планете случилась некая глобальная катастрофа, в результате которой погибли миллиарды людей. Охотница за головами, которая почти ничем не отличается от тех, за кем охотится, пытается найти и обезвредить самого опасного преступника нового мира. За это ей обещают солидный куш.



Страна: Канада, США
Продолжительность: 01:33:55
Перевод: Профессиональный (многоголосый, закадровый) Jaskier

Файл
Формат: MKV
Качество: BDRip 1080p | MT
Видео: MPEG-4 AVC, 12000 kb/s, 1920x1036
Аудио: Russian: / English: AC3, 640 kb/s (6 ch)
Субтитры: английские (full)




Общее
Уникальный идентификатор : 239773965703145216300564486313633183344 (0xB462C93A20D44F20A53EA1CA45DCF670)
Полное имя : D:ЯскъерScorched.Earth.2018.BDRip.1080p.JASKiER.mkv
Формат : Matroska
Версия формата : Version 2
Размер файла : 8,71 Гбайт
Продолжительность : 1 ч. 33 м.
Общий поток : 13,3 Мбит/сек
Дата кодирования : UTC 2018-06-21 04:04:45
Программа кодирования : mkvmerge v7.8.0 ('River Man') 32bit built on Apr 3 2015 12:11:22
Библиотека кодирования : libebml v1.3.1 + libmatroska v1.4.2

Видео
Идентификатор : 1
Формат : AVC
Формат/Информация : Advanced Video Codec
Профиль формата : High@L4.1
Настройки формата : CABAC / 4 Ref Frames
Параметр CABAC формата : Да
Параметр RefFrames формата : 4 кадра
Идентификатор кодека : V_MPEG4/ISO/AVC
Продолжительность : 1 ч. 33 м.
Битрейт : 12,0 Мбит/сек
Ширина : 1920 пикселей
Высота : 1036 пикселей
Соотношение сторон : 1,85:1
Режим частоты кадров : Постоянный
Частота кадров : 23,976 (24000/1001) кадра/сек
Цветовое пространство : YUV
Субдискретизация насыщенности : 4:2:0
Битовая глубина : 8 бит
Тип развёртки : Прогрессивная
Бит/(Пиксели*Кадры) : 0.252
Размер потока : 7,70 Гбайт (88%)
Заголовок : MT
Библиотека кодирования : x264 core 142 r2431+42 c69a006 tMod [8-bit@4:2:0 X86]
Настройки программы : cabac=1 / ref=4 / deblock=1:-3:-3 / analyse=0x3:0x133 / me=umh / subme=10 / psy=1 / fade_compensate=0.00 / psy_rd=1.00:0.00 / mixed_ref=1 / me_range=48 / chroma_me=1 / trellis=2 / 8x8dct=1 / cqm=0 / deadzone=21,11 / fast_pskip=0 / chroma_qp_offset=-2 / threads=12 / lookahead_threads=1 / sliced_threads=0 / nr=0 / decimate=0 / interlaced=0 / bluray_compat=0 / constrained_intra=0 / fgo=0 / bframes=6 / b_pyramid=2 / b_adapt=2 / b_bias=0 / direct=3 / weightb=0 / open_gop=0 / weightp=2 / keyint=230 / keyint_min=22 / scenecut=40 / intra_refresh=0 / rc_lookahead=60 / rc=2pass / mbtree=1 / bitrate=12000 / ratetol=1.0 / qcomp=0.60 / qpmin=0:0:0 / qpmax=69:69:69 / qpstep=4 / cplxblur=20.0 / qblur=0.5 / vbv_maxrate=50000 / vbv_bufsize=50000 / nal_hrd=none / filler=0 / ip_ratio=1.40 / aq=1:1.00 / aq-sensitivity=10.00 / aq-factor=1.00:1.00:1.00 / aq2=0 / aq3=0
Язык : English
Default : Да
Forced : Нет

Аудио #1
Идентификатор : 2
Формат : AC-3
Формат/Информация : Audio Coding 3
Идентификатор кодека : A_AC3
Продолжительность : 1 ч. 33 м.
Вид битрейта : Постоянный
Битрейт : 640 Кбит/сек
Каналы : 6 каналов
Расположение каналов : Front: L C R, Side: L R, LFE
Частота : 48,0 КГц
Частота кадров : 31,250 кадров/сек (1536 SPF)
Битовая глубина : 16 бит
Метод сжатия : С потерями
Размер потока : 430 Мбайт (5%)
Заголовок : Jaskier
Язык : Russian
Default : Да
Forced : Нет

Аудио #2
Идентификатор : 3
Формат : AC-3
Формат/Информация : Audio Coding 3
Идентификатор кодека : A_AC3
Продолжительность : 1 ч. 33 м.
Вид битрейта : Постоянный
Битрейт : 640 Кбит/сек
Каналы : 6 каналов
Расположение каналов : Front: L C R, Side: L R, LFE
Частота : 48,0 КГц
Частота кадров : 31,250 кадров/сек (1536 SPF)
Битовая глубина : 16 бит
Метод сжатия : С потерями
Размер потока : 430 Мбайт (5%)
Язык : English
Default : Нет
Forced : Нет

Текст #1
Идентификатор : 4
Формат : UTF-8
Идентификатор кодека : S_TEXT/UTF8
Идентификатор кодека/Информация : UTF-8 Plain Text
Язык : English
Default : Нет
Forced : Нет

Текст #2
Идентификатор : 5
Формат : UTF-8
Идентификатор кодека : S_TEXT/UTF8
Идентификатор кодека/Информация : UTF-8 Plain Text
Заголовок : SDH
Язык : English
Default : Нет
Forced : Нет

Меню
00:00:00.000 : en:00:00:00.000
00:12:18.029 : en:00:12:18.029
00:24:05.903 : en:00:24:05.903
00:37:14.858 : en:00:37:14.858
00:50:44.917 : en:00:50:44.917
01:01:09.082 : en:01:01:09.082
01:14:11.030 : en:01:14:11.030
01:28:41.983 : en:01:28:41.983


_________________
Проголосуй за трекер Открытый торрент трекер - RUS-MEDIA.ORG

Проголосуй Открытый торрент трекер - RUS-MEDIA.ORG


Вернуться к началу
 Профиль Отправить личное сообщение  
 
   Похожие торренты   Автор   Торрент   Размер 
В этой теме нет новых непрочитанных сообщений. Выжженная земля / Scorched Earth [Фантастика, боевик, 2018] BDRip, Mvo [Jaskier]

salma3

0 | 1

1.46 ГБ

В этой теме нет новых непрочитанных сообщений. Выжженная земля / Scorched Earth [Фантастика, боевик, 2018] BDRip, Mvo [Jaskier]

salma3

0 | 0

745.51 МБ

В этой теме нет новых непрочитанных сообщений. Выжженная земля / Scorched Earth [Фантастика, боевик, 2018] BDRip, Mvo [Jaskier]

salma3

0 | 0

1.46 ГБ

В этой теме нет новых непрочитанных сообщений. Выжженная земля / Scorched Earth [Фантастика, боевик, 2018] BDRip 720p, Mvo [Jaskier]

salma3

0 | 0

4.78 ГБ

В этой теме нет новых непрочитанных сообщений. Выжженная земля / Scorched Earth [фантастика, боевик, 2018] BDRip 1080p, Mvo

salma3

32 | 8

8.99 ГБ

В этой теме нет новых непрочитанных сообщений. Выжженная земля / Scorched Earth [Фантастика, боевик, 2018] BDRip 1080p, Mvo

salma3

242 | 95

8.42 ГБ

В этой теме нет новых непрочитанных сообщений. Выжженная земля / Scorched Earth [Фантастика, боевик, 2018] BDRip, Mvo

salma3

130 | 11

745.51 МБ


Начать новую тему Ответить на тему  [ 1 сообщение ] 




Для Мосгорсуда, Роскомнадзора и рекламодателей:: mosgorsud-torrent[собачка]yandex.ru
cron