Торрент файл
скачать торрент магнет ссылка Добавлен: 17 июн 2018, 17:07
Размер: 1.46 ГБ
Сидеров: 4
Личеров: 2
Статус: (salma3)
Автор

СообщениеДобавлено: 17 июн 2018, 17:07 

Не в сети
Супермодератор
Аватара пользователя
Дата регистрации:
15 фев 2012, 16:44
Возраст: 29
Спасибо: 7328 / 2147
Сообщения: 73639
Год выхода: 2003
Жанр: драма, приключения
Режиссер: Чарльз Мартин Смит

В ролях: Барри Пеппер, Анабелла Пиугаттук, Джеймс Кромуэлл, Кирстен Уоррен, Джон Грайз, Робин Данн, Малкольм Скотт, Майкл Бубле, Брэд Сивон, Грег Споттисвуд

О фильме: События фильма разворачиваются в 1950-х годах. Тысячи миль арктической пустыни вокруг. Край, который еще не успел разрушить ЧЕЛОВЕК. Чарли Холлидей был рожден для того, чтобы работать в таком месте. Его самолет бороздил воздушное пространство практически в любую погоду, доставляя продовольствие в самые отдаленные уголки Канадской Арктики. Он привык рисковать жизнью и за хорошее вознаграждение был готов практически на все. Не удивительно, что даже зная о предстоящем буране он согласился доставить в больницу, страдающую от туберкулеза девушку Иунит из местного племени. Однако даже Чарли не был готов к тому, какую участь уготовила ему судьба. Его верный самолет оказавшийся не в силах противостоять разбушевавшейся стихии, терпит катастрофу и отважный пилот вместе со спутницей, практически не говорящей по-английски, оказывается один на один с бесконечной арктической пустыней. Теперь эти двое могут надеяться только друг на друга и, чтобы выжить среди снежных просторов им предстоит не только собрать в кулак всю свою волю и мужество, но и наконец-то поверить друг в друга…



Страна: Канада
Продолжительность: 01:45:19
Перевод: Профессиональный (многоголосый, закадровый) R5

Файл
Формат: AVI
Видео: 704x400 at 23.976 fps, XviD build 73 ~1510 kbps avg
Аудио: Russian: 48 kHz, AC3 Dolby Digital, 3/2 (L,C,R,l,r) + LFE ch, ~384 kbps avg |Многоголосый закадровый, R5|
Субтитры: None

***Релиз - tеko

Общее
Полное имя : The.Snow.Walker.2003.dvdrip_[1.46]_[teko].avi
Формат : AVI
Формат/Информация : Audio Video Interleave
Размер файла : 1,46 Гбайт
Продолжительность : 1 ч. 45 м.
Общий поток : 1981 Кбит/сек
Программа кодирования : VirtualDubMod 1.5.10.3 | http://www.virtualdub-fr.org || (build 2550/release)
Библиотека кодирования : VirtualDubMod build 2550/release

Видео
Идентификатор : 0
Формат : MPEG-4 Visual
Профиль формата : Advanced Simple@L5
Параметр BVOP формата : 2
Параметр QPel формата : Нет
Параметр GMC формата : Без точки перехода
Параметр матрицы формата : Выборочная
Идентификатор кодека : XVID
Идентификатор кодека/Подсказка : XviD
Продолжительность : 1 ч. 45 м.
Битрейт : 1510 Кбит/сек
Ширина : 704 пикселя
Высота : 400 пикселей
Соотношение сторон : 16:9
Частота кадров : 23,976 кадра/сек
Цветовое пространство : YUV
Субдискретизация насыщенности : 4:2:0
Битовая глубина : 8 бит
Тип развёртки : Прогрессивная
Метод сжатия : С потерями
Бит/(Пиксели*Кадры) : 0.224
Размер потока : 1,11 Гбайт (76%)
Библиотека кодирования : XviD 73

Аудио
Идентификатор : 1
Формат : AC-3
Формат/Информация : Audio Coding 3
Расширение режима : CM (complete main)
Параметр Endianness формата : Big
Идентификатор кодека : 2000
Продолжительность : 1 ч. 45 м.
Вид битрейта : Постоянный
Битрейт : 384 Кбит/сек
Каналы : 6 каналов
Расположение каналов : Front: L C R, Side: L R, LFE
Частота : 48,0 КГц
Метод сжатия : С потерями
Размер потока : 289 Мбайт (19%)
Выравнивание : Разделение по промежуткам



_________________
Проголосуй за трекер Открытый торрент трекер - RUS-MEDIA.ORG

Проголосуй Открытый торрент трекер - RUS-MEDIA.ORG


Вернуться к началу
 Профиль Отправить личное сообщение  
 
   Похожие торренты   Автор   Торрент   Размер 
В этой теме нет новых непрочитанных сообщений. Dora Venter - Потаскушки на Снегу / Private Sports 4: Snow Sluts (2003) DVDRip | Rus

salma3

1 | 0

293.11 МБ

В этой теме нет новых непрочитанных сообщений. Следы на снегу / Treasures of the Snow [Драма, 1980] DVDrip, Dub

salma3

57 | 13

1.51 ГБ

В этой теме нет новых непрочитанных сообщений. Идущий по линии / Shi tu xing zhe / Line Walker [боевик, триллер, 2016] HDRip, Dvo

salma3

824 | 166

1.42 ГБ

В этой теме нет новых непрочитанных сообщений. Рапа Нуи: Потерянный рай / Rapa Nui [боевик, драма, мелодрама, приключения, история, 1994] DVDRip-AVC, Mvo

salma3

114 | 24

2.44 ГБ

В этой теме нет новых непрочитанных сообщений. Джейн и потерянный город / Jane and the Lost City [Комедия, приключения, 1987] DVDRip, Dvo

salma3

63 | 0

1.46 ГБ

В этой теме нет новых непрочитанных сообщений. Идущий в огне / Firewalker [Боевик, комедия, приключения, 1986] BDRip 1080p, Dvo

salma3

32 | 23

8.97 ГБ

В этой теме нет новых непрочитанных сообщений. Потерянный ангел / The Lost Angel [Триллер, драма, 2005] DVDRip, Mvo

salma3

102 | 4

1.37 ГБ


Начать новую тему Ответить на тему  [ 1 сообщение ] 




Для Мосгорсуда, Роскомнадзора и рекламодателей:: mosgorsud-torrent[собачка]yandex.ru
cron