Торрент файл
скачать торрент магнет ссылка Добавлен: 17 июн 2018, 17:02
Размер: 3.48 ГБ
Сидеров: 118
Личеров: 72
Статус: (salma3)
Автор

СообщениеДобавлено: 17 июн 2018, 17:02 

Не в сети
Супермодератор
Аватара пользователя
Дата регистрации:
15 фев 2012, 16:44
Возраст: 29
Спасибо: 7333 / 2147
Сообщения: 73961
Год выхода: 2018
Жанр: Триллер
Режиссер: Тайлер Перри

В ролях: Тараджи П. Хенсон, Лайрик Бент, Кристл Стюарт, Жасмин Саймон, Ptosha Storey, Даниэль Николет, Нельсон Эстевез, Кендрик Кросс, Джей Хантер, Аджиона Алексус и другие

О фильме:
Верная и любящая жена однажды узнаёт, что её муж давно ведёт двойную жизнь. Обезумевшая от ярости женщина разрабатывает план мести.



Страна: США
Продолжительность: 02:00:58
Перевод: Любительский (двухголосый закадровый) | HiWay Grope

Файл
Кодек: MPEG-4 AVC/x.264
Качество: WEBRip 720p
Видео: 1280x536, 25.000 fps, ~3651 kbps, 0.213 bit/pixel
Аудио rus: AC3, 48 kHz, 6 ch, 384 Kbps

Реклама: присутствует

Семпл

General
Unique ID : 236094914318117914733648049824746882522 (0xB19E39FD3BAB5C64B82A55C4365EC5DA)
Complete name : E:Acrimony.2018.720p.WEBRip.HiWayGropeAcrimony.2018.720p.WEBRip.HiWayGrope.mkv
Format : Matroska
Format version : Version 2
File size : 3.48 GiB
Duration : 2h 0mn
Overall bit rate : 4 117 Kbps
Encoded date : UTC 2018-06-17 10:52:11
Writing application : mkvmerge v3.3.0 ('Language') built on Mar 24 2010 14:59:24
Writing library : libebml v0.8.0 + libmatroska v0.9.0

Video
ID : 1
Format : AVC
Format/Info : Advanced Video Codec
Format profile : Main@L3.1
Format settings, CABAC : Yes
Format settings, ReFrames : 3 frames
Codec ID : V_MPEG4/ISO/AVC
Duration : 2h 0mn
Bit rate : 3 651 Kbps
Width : 1 280 pixels
Height : 536 pixels
Display aspect ratio : 2.40:1
Frame rate mode : Constant
Frame rate : 25.000 fps
Standard : PAL
Color space : YUV
Chroma subsampling : 4:2:0
Bit depth : 8 bits
Scan type : Progressive
Bits/(Pixel*Frame) : 0.213
Stream size : 3.09 GiB (89%)
Language : English
Default : Yes
Forced : No
Color range : Limited
Color primaries : BT.601 NTSC
Transfer characteristics : BT.601
Matrix coefficients : BT.601

Audio
ID : 2
Format : AC-3
Format/Info : Audio Coding 3
Mode extension : CM (complete main)
Format settings, Endianness : Big
Codec ID : A_AC3
Duration : 2h 0mn
Bit rate mode : Constant
Bit rate : 384 Kbps
Channel(s) : 6 channels
Channel positions : Front: L C R, Side: L R, LFE
Sampling rate : 48.0 KHz
Frame rate : 31.250 fps (1536 spf)
Compression mode : Lossy
Stream size : 332 MiB (9%)
Default : Yes
Forced : No



Релиз от: HiWay Grope


_________________
Проголосуй за трекер Открытый торрент трекер - RUS-MEDIA.ORG

Проголосуй Открытый торрент трекер - RUS-MEDIA.ORG


Вернуться к началу
 Профиль Отправить личное сообщение  
 
   Похожие торренты   Автор   Торрент   Размер 
В этой теме нет новых непрочитанных сообщений. Раздражительность / Acrimony [Триллер, 2018] WEBRip, Dvo

salma3

0 | 2

1.11 ГБ

В этой теме нет новых непрочитанных сообщений. Раздражительность / Acrimony [Триллер, 2018] BDRip 720p, Mvo

salma3

0 | 1

2.2 ГБ

В этой теме нет новых непрочитанных сообщений. Раздражительность / Acrimony [Триллер, 2018] BDRip 720p, Mvo [Jaskier]

salma3

0 | 0

4.61 ГБ

В этой теме нет новых непрочитанных сообщений. Раздражительность / Acrimony [триллер, 2018] BDRip-AVC, Mvo

salma3

88 | 13

1.39 ГБ

В этой теме нет новых непрочитанных сообщений. Раздражительность / Acrimony [Триллер, 2018] BDRip, Mvo

salma3

0 | 0

1.46 ГБ

В этой теме нет новых непрочитанных сообщений. Раздражительность / Acrimony [Триллер, 2018] BDRemux 1080p, Mvo

salma3

0 | 1

32.14 ГБ

В этой теме нет новых непрочитанных сообщений. Раздражительность / Acrimony [Триллер, 2018] BDRip, Mvo [Jaskier]

salma3

118 | 61

1.46 ГБ


Начать новую тему Ответить на тему  [ 1 сообщение ] 




Для Мосгорсуда, Роскомнадзора и рекламодателей:: mosgorsud-torrent[собачка]yandex.ru
cron