Торрент файл
скачать торрент магнет ссылка Добавлен: 16 июн 2018, 20:46
Размер: 17.16 ГБ
Сидеров: 43
Личеров: 32
Статус: (salma3)
Автор

СообщениеДобавлено: 16 июн 2018, 20:46 

Не в сети
Супермодератор
Аватара пользователя
Дата регистрации:
15 фев 2012, 16:44
Возраст: 28
Спасибо: 7224 / 2147
Сообщения: 67851
Год выхода: 2016
Жанр: триллер, драма
Режиссер: Джон Мэдден

В ролях: Jeffrey Barnes, Джессика Честейн, Гугу Эмбата-Ро, Кристин Барански, Марк Стронг, Джон Литгоу, Элисон Пилл, Майкл Стулбарг, Сэм Уотерстон, Джейк Лэси

О фильме:
История о блестящем и беспощадном лоббисте, которая прославилась беспрецедентным талантом и желанием победить любой ценой, даже тогда, когда это ставит ее карьеру под угрозу.



Страна: Франция, США
Продолжительность: 02:12:11
Перевод: Профессиональный (многоголосый закадровый) 'СВ-Студия'

Файл
Формат: MKV
Качество: BDRip 1080p
Видео: 1920x804 at 23.976 fps, x264@L4.1, ~15.6 Mbps avg
Аудио#1: Russian: 48 kHz, DTS, 3/2 (L,C,R,l,r) + LFE ch, ~1509.00 kbps avg
Аудио#2: English: 48 kHz, DTS, 3/2 (L,C,R,l,r) + LFE ch, ~1509.00 kbps avg
Cубтитры: Русские, английские, испанские

• Заказ и выкуп перевода - ylnian и Ко
• За русские субтитры спасибо porcellus

General
Unique ID : 273497915601155750646145357180108627924 (0xCDC1C8546F5C472FD9946A3A50055FD4)
Complete name : Miss.Sloane.2016.BDRip.1080p-ylnian.mkv
Format : Matroska
Format version : Version 4 / Version 2
File size : 17.2 GiB
Duration : 2 h 12 min
Overall bit rate : 18.6 Mb/s
Movie name : Miss.Sloane.2016.BDRip.1080p-ylnian
Encoded date : UTC 2018-06-16 05:50:23
Writing application : mkvmerge v23.0.0 ('The Bride Said No') 64-bit
Writing library : libebml v1.3.6 + libmatroska v1.4.9

Video
ID : 1
Format : AVC
Format/Info : Advanced Video Codec
Format profile : High@L4.1
Format settings : CABAC / 5 Ref Frames
Format settings, CABAC : Yes
Format settings, RefFrames : 5 frames
Codec ID : V_MPEG4/ISO/AVC
Duration : 2 h 12 min
Bit rate : 15.6 Mb/s
Width : 1 920 pixels
Height : 804 pixels
Display aspect ratio : 2.40:1
Frame rate mode : Constant
Frame rate : 23.976 (24000/1001) FPS
Color space : YUV
Chroma subsampling : 4:2:0
Bit depth : 8 bits
Scan type : Progressive
Bits/(Pixel*Frame) : 0.420
Stream size : 14.4 GiB (84%)
Title : Miss.Sloane.2016.1080p.BluRay.DTS.x264-DON
Writing library : x264 core 148 r2705+54 9f484c1 t_mod_Custom [8-bit@all X86_64]
Encoding settings : cabac=1 / ref=5 / deblock=1:-3:-3 / analyse=0x3:0x133 / me=tesa / subme=11 / psy=1 / fade_compensate=0.00 / psy_rd=1.05:0.00 / mixed_ref=1 / me_range=24 / chroma_me=1 / trellis=2 / 8x8dct=1 / cqm=0 / deadzone=21,11 / fast_pskip=0 / chroma_qp_offset=-2 / threads=12 / lookahead_threads=2 / sliced_threads=0 / nr=0 / decimate=0 / interlaced=0 / bluray_compat=0 / constrained_intra=0 / fgo=0 / bframes=9 / b_pyramid=2 / b_adapt=2 / b_bias=0 / direct=3 / weightb=1 / open_gop=0 / weightp=2 / keyint=250 / keyint_min=23 / scenecut=40 / intra_refresh=0 / rc_lookahead=60 / rc=crf / mbtree=0 / crf=17.8000 / qcomp=0.65 / qpmin=0:0:0 / qpmax=69:69:69 / qpstep=4 / vbv_maxrate=62500 / vbv_bufsize=78125 / crf_max=0.0 / nal_hrd=none / filler=0 / ip_ratio=1.30 / pb_ratio=1.20 / aq=3:0.80 / aq-sensitivity=10.00 / aq-factor=1.00:1.00:1.00 / aq2=0 / aq3=0 / zones=477,776,crf=16/1266,2884,crf=17.3/4642,4736,crf=17.3/9080,9435,crf=16.8/24638,25351,crf=16.8/25517,31230,crf=16.8/31231,31594,crf=16.3/31595,31696,crf=17.3/31697,31759,crf=13/31760,31844,crf=17.3/31896,32094,crf=16.3/48896,49668,crf=16.8/49669,49725,crf=15.8/49765,50051,crf=15.8/50052,50136,crf=17.3/50137,50179,crf=15.8/50180,50285,crf=17.3/50286,50371,crf=15.8/50372,50444,crf=17.3/50445,50586,crf=15.8/50587,50711,crf=17.3/50712,50777,crf=15/50778,50838,crf=17.3/50839,50894,crf=15.8/50895,50929,crf=17.3/50930,51048,,crf=15.8/51049,51243,crf=17.3/51244,51322,crf=15.8/56860,58516,crf=16.8/67730,71515,crf=17/71574,71609,crf=15/71679,71718,crf=15/71719,71817,crf=16.3/71884,72203,crf=15.8/72204,72241,crf=17.3/72242,72308,crf=14.8/72309,72367,crf=17.3/72368,72424,crf=14.8/72425,72498,crf=17.3/72499,72546,crf=14.8/72547,72598,crf=17.3/72599,72658,crf=14.8/72659,72734,crf=17.3/72735,72796,crf=14.8/72797,72910,crf=17.3/72911,73691,crf=13/75615,75985,crf=15.8/75986,76607,crf=16.8/76608,76722,crf=15.8/78275,78533,crf=16.3/79239,79454,crf=16.8/79455,79765,crf=17.3/81242,81357,crf=16.8/81894,82859,crf=16.8/82860,83228,crf=15.8/85396,88498,crf=17.3/93018,93519,crf=16.8/101860,102502,crf=17.3/108506,108815,crf=16.8/109248,109426,crf=15/110470,111901,crf=17.3/111902,112182,crf=15/113141,113922,crf=16.8/118580,123439,crf=16.3/123887,124042,crf=17.3/128534,129428,crf=16.8/129492,129542,crf=16.8/129680,129908,crf=15.3/136880,137809,crf=17.3/137995,139781,crf=17.3/140450,140802,crf=17.3/145494,146455,crf=17.3/148491,151663,crf=16.3/163290,163342,crf=17.3/163391,163462,crf=17.3/163593,163741,crf=17.3/164757,164820,crf=17.3/174309,174585,crf=16.3/175363,175467,crf=16.3/175782,175826,crf=16.3/175827,175950,crf=17.3/177828,177903,crf=16.3/182780,190153,crf=21
Language : English
Default : Yes
Forced : No
Color range : Limited
Matrix coefficients : BT.709

Audio #1
ID : 2
Format : DTS
Format/Info : Digital Theater Systems
Codec ID : A_DTS
Duration : 2 h 12 min
Bit rate mode : Constant
Bit rate : 1 509 kb/s
Channel(s) : 6 channels
Channel positions : Front: L C R, Side: L R, LFE
Sampling rate : 48.0 kHz
Frame rate : 93.750 FPS (512 SPF)
Bit depth : 24 bits
Compression mode : Lossy
Stream size : 1.39 GiB (8%)
Language : Russian
Default : Yes
Forced : Yes

Audio #2
ID : 3
Format : DTS
Format/Info : Digital Theater Systems
Codec ID : A_DTS
Duration : 2 h 12 min
Bit rate mode : Constant
Bit rate : 1 509 kb/s
Channel(s) : 6 channels
Channel positions : Front: L C R, Side: L R, LFE
Sampling rate : 48.0 kHz
Frame rate : 93.750 FPS (512 SPF)
Bit depth : 24 bits
Compression mode : Lossy
Stream size : 1.39 GiB (8%)
Language : English
Default : No
Forced : No

Text #1
ID : 4
Format : UTF-8
Codec ID : S_TEXT/UTF8
Codec ID/Info : UTF-8 Plain Text
Duration : 2 h 6 min
Bit rate : 177 b/s
Count of elements : 1914
Stream size : 164 KiB (0%)
Language : Russian
Default : Yes
Forced : No

Text #2
ID : 5
Format : UTF-8
Codec ID : S_TEXT/UTF8
Codec ID/Info : UTF-8 Plain Text
Duration : 2 h 5 min
Bit rate : 95 b/s
Count of elements : 2634
Stream size : 87.8 KiB (0%)
Language : English
Default : No
Forced : No

Text #3
ID : 6
Format : UTF-8
Codec ID : S_TEXT/UTF8
Codec ID/Info : UTF-8 Plain Text
Duration : 2 h 5 min
Bit rate : 99 b/s
Count of elements : 2714
Stream size : 90.9 KiB (0%)
Title : SDH
Language : English
Default : No
Forced : No

Text #4
ID : 7
Format : UTF-8
Codec ID : S_TEXT/UTF8
Codec ID/Info : UTF-8 Plain Text
Duration : 2 h 5 min
Bit rate : 107 b/s
Count of elements : 2714
Stream size : 98.5 KiB (0%)
Title : SDH-Colored
Language : English
Default : No
Forced : No

Text #5
ID : 8
Format : UTF-8
Codec ID : S_TEXT/UTF8
Codec ID/Info : UTF-8 Plain Text
Duration : 2 h 5 min
Bit rate : 92 b/s
Count of elements : 2179
Stream size : 85.2 KiB (0%)
Language : Spanish
Default : No
Forced : No

Menu
00:00:00.000 : en:00:00:00.000
00:03:17.572 : en:00:03:17.572
00:10:01.810 : en:00:10:01.810
00:14:33.331 : en:00:14:33.331
00:21:39.632 : en:00:21:39.632
00:27:24.601 : en:00:27:24.601
00:30:24.614 : en:00:30:24.614
00:35:40.597 : en:00:35:40.597
00:40:37.018 : en:00:40:37.018
00:45:36.651 : en:00:45:36.651
00:50:08.130 : en:00:50:08.130
00:56:55.662 : en:00:56:55.662
01:01:31.146 : en:01:01:31.146
01:05:00.563 : en:01:05:00.563
01:10:10.415 : en:01:10:10.415
01:15:56.552 : en:01:15:56.552
01:22:25.399 : en:01:22:25.399
01:31:17.097 : en:01:31:17.097
01:35:47.825 : en:01:35:47.825
01:41:48.436 : en:01:41:48.436
01:45:25.653 : en:01:45:25.653
01:54:30.781 : en:01:54:30.781
02:03:40.288 : en:02:03:40.288
02:08:02.008 : en:02:08:02.008



Релиз от: by ylnian


_________________
Проголосуй за трекер Открытый торрент трекер - RUS-MEDIA.ORG

Проголосуй Открытый торрент трекер - RUS-MEDIA.ORG


Вернуться к началу
 Профиль Отправить личное сообщение  
 
   Похожие торренты   Автор   Торрент   Размер 
В этой теме нет новых непрочитанных сообщений. Мисс Слоун / Miss Sloane [Триллер, драма, 2016] BDRip, Mvo

salma3

662 | 112

1.46 ГБ

В этой теме нет новых непрочитанных сообщений. Мисс Слоун / Miss Sloane [Триллер, драма, 2016] BDRip-AVC, Dvo

salma3

0 | 0

2.54 ГБ

В этой теме нет новых непрочитанных сообщений. Мисс Слоун / Miss Sloane [Триллер, драма, 2016] BDRip, Mvo

salma3

8 | 3

2.18 ГБ

В этой теме нет новых непрочитанных сообщений. Мисс Слоун / Miss Sloane [Триллер, драма, 2016] BDRip 720p, Mvo

salma3

0 | 0

6.72 ГБ

В этой теме нет новых непрочитанных сообщений. Мисс Слоун / Miss Sloane [триллер, драма, 2016] WEBRip, Mvo

salma3

1127 | 205

1.37 ГБ

В этой теме нет новых непрочитанных сообщений. Мисс Слоун / Miss Sloane [Драма, триллер, 2016] HDRip-AVC, Dvo

salma3

5 | 7

745.8 МБ

В этой теме нет новых непрочитанных сообщений. Мисс Слоун / Miss Sloane [триллер, драма, 2016] HDRip, Mvo

salma3

96 | 31

2.05 ГБ


Начать новую тему Ответить на тему  [ 1 сообщение ] 




Для Мосгорсуда, Роскомнадзора и рекламодателей:: mosgorsud-torrent[собачка]yandex.ru
cron