Торрент файл
скачать торрент магнет ссылка Добавлен: 15 июн 2018, 20:31
Размер: 12.4 ГБ
Сидеров: 76
Личеров: 90
Статус: (salma3)
Автор

СообщениеДобавлено: 15 июн 2018, 20:31 

Не в сети
Супермодератор
Аватара пользователя
Дата регистрации:
15 фев 2012, 16:44
Возраст: 29
Спасибо: 7333 / 2147
Сообщения: 73961
Год выпуска: 1981
Выпущено: США, Metro-Goldwyn-Mayer (MGM), Svengali Productions
Жанр: Приключения
Режиссер: Джон Дерек

В ролях: Бо Дерек, Ричард Харрис, Джон Филипп Ло, Майлз О`Киффи, Уилфрид Хайд-Уайт, Акушула Селайя, Стив Стронг, Максим Фило, Леонард Бэйли, Лори Майн

О фильме: В 1910 году в самую что ни на есть дикую западноафриканскую глушь приезжает молодая женщина Джейн Паркер - блондинка с голубыми глазами, длинными ногами, мягкой загорелой кожей и со страстным желанием найти в этих экзотических местах родного отца, ушедшего из семьи, когда девочке был всего один год. Джеймс Паркер, отец Джейн, ищет в Африке мифическую «белую обезьяну». Они обнаруживают, что «белая обезьяна» — это в действительности Тарзан, дикарь, выросший в джунглях. Джеймс Паркер хочет поймать Тарзана живым или мертвым и доставить в Англию.

Продолжительность: 01:54:53
Перевод: Профессиональный многоголосый
Субтитры: Английские, финские
Навигация по главам: Есть

Файл
Качество: WEB-DL 1080p
Видео: MPEG-4 AVC, 14,3 Мбит/сек, 1920x1080, 23,976 кадра/сек
Аудио #1: AC3, 2 ch, 192 Кбит/сек | Русский, профессиональный (многоголосый закадровый) НТВ+
Аудио #2: EAC3, 6 ch, 640 Кбит/сек | Английский, оригинал



Общее
Уникальный идентификатор : 208386483653570537811751303598257366177 (0x9CC5C6E217ABF74A96424156A60664A1)
Полное имя : Тарзан.человек-обезьяна.1981.WEB-DL.1080p.mkv
Формат : Matroska
Версия формата : Version 2
Размер файла : 12,4 Гбайт
Продолжительность : 1 ч. 54 м.
Режим общего битрейта : Переменный
Общий поток : 15,5 Мбит/сек
Дата кодирования : UTC 2018-06-12 13:28:57
Программа кодирования : mkvmerge v5.8.0 ('No Sleep / Pillow') built on Sep 2 2012 15:37:04
Библиотека кодирования : libebml v1.2.3 + libmatroska v1.3.0

Видео
Идентификатор : 1
Формат : AVC
Формат/Информация : Advanced Video Codec
Профиль формата : High@L4
Настройки формата : CABAC / 4 Ref Frames
Параметр CABAC формата : Да
Параметр RefFrames формата : 4 кадра
Идентификатор кодека : V_MPEG4/ISO/AVC
Продолжительность : 1 ч. 54 м.
Вид битрейта : Переменный
Битрейт : 14,3 Мбит/сек
Максимальный битрейт : 15,0 Мбит/сек
Ширина : 1920 пикселей
Высота : 1080 пикселей
Соотношение сторон : 16:9
Режим частоты кадров : Постоянный
Частота кадров : 23,976 (24000/1001) кадра/сек
Цветовое пространство : YUV
Субдискретизация насыщенности : 4:2:0
Битовая глубина : 8 бит
Тип развёртки : Прогрессивная
Бит/(Пиксели*Кадры) : 0.288
Размер потока : 11,5 Гбайт (93%)
Библиотека кодирования : x264 core 148 r2623 d5b2374
Настройки программы : cabac=1 / ref=4 / deblock=1:-1:-1 / analyse=0x3:0x133 / me=umh / subme=9 / psy=1 / psy_rd=1.00:0.15 / mixed_ref=1 / me_range=24 / chroma_me=1 / trellis=2 / 8x8dct=1 / cqm=0 / deadzone=21,11 / fast_pskip=1 / chroma_qp_offset=-3 / threads=34 / lookahead_threads=5 / sliced_threads=0 / nr=150 / decimate=1 / interlaced=0 / bluray_compat=0 / constrained_intra=0 / bframes=8 / b_pyramid=2 / b_adapt=2 / b_bias=0 / direct=3 / weightb=1 / open_gop=0 / weightp=2 / keyint=120 / keyint_min=61 / scenecut=0 / intra_refresh=0 / rc_lookahead=120 / rc=crf / mbtree=1 / crf=18.0 / qcomp=0.60 / qpmin=0 / qpmax=69 / qpstep=4 / vbv_maxrate=15000 / vbv_bufsize=31250 / crf_max=0.0 / nal_hrd=vbr / filler=0 / ip_ratio=1.40 / aq=3:1.00
Язык : English
Default : Да
Forced : Нет
Цветовой диапазон : Limited
Основные цвета : BT.709
Характеристики трансфера : BT.709
Коэффициенты матрицы : BT.709

Аудио #1
Идентификатор : 2
Формат : AC-3
Формат/Информация : Audio Coding 3
Идентификатор кодека : A_AC3
Продолжительность : 1 ч. 54 м.
Вид битрейта : Постоянный
Битрейт : 192 Кбит/сек
Каналы : 2 канала
Расположение каналов : Front: L R
Частота : 48,0 КГц
Частота кадров : 31,250 кадров/сек (1536 SPF)
Битовая глубина : 16 бит
Метод сжатия : С потерями
Размер потока : 158 Мбайт (1%)
Заголовок : MVO | НТВ+
Язык : Russian
По умолчанию : Да
Принудительно : Нет

Аудио #2
Идентификатор : 3
Формат : E-AC-3
Формат/Информация : Enhanced Audio Coding 3
Идентификатор кодека : A_EAC3
Продолжительность : 1 ч. 54 м.
Вид битрейта : Постоянный
Битрейт : 640 Кбит/сек
Каналы : 6 каналов
Расположение каналов : Front: L C R, Side: L R, LFE
Частота : 48,0 КГц
Частота кадров : 187,500 кадров/сек (256 SPF)
Метод сжатия : С потерями
Размер потока : 526 Мбайт (4%)
Заголовок : Original
Язык : English
По умолчанию : Нет
Принудительно : Нет

Текст #1
Идентификатор : 4
Формат : UTF-8
Идентификатор кодека : S_TEXT/UTF8
Идентификатор кодека/Информация : UTF-8 Plain Text
Заголовок : 1
Язык : English
По умолчанию : Нет
Принудительно : Нет

Текст #2
Идентификатор : 5
Формат : UTF-8
Идентификатор кодека : S_TEXT/UTF8
Идентификатор кодека/Информация : UTF-8 Plain Text
Заголовок : 2
Язык : English
По умолчанию : Нет
Принудительно : Нет

Текст #3
Идентификатор : 6
Формат : UTF-8
Идентификатор кодека : S_TEXT/UTF8
Идентификатор кодека/Информация : UTF-8 Plain Text
Заголовок : SDH
Язык : English
По умолчанию : Нет
Принудительно : Нет

Текст #4
Идентификатор : 7
Формат : UTF-8
Идентификатор кодека : S_TEXT/UTF8
Идентификатор кодека/Информация : UTF-8 Plain Text
Язык : Finnish
По умолчанию : Нет
Принудительно : Нет

Меню
00:00:00.000 : en:Lady to our taste (Credits).
00:06:02.511 : en:Welcoming Jane.
00:12:05.511 : en:Strong emotions.
00:19:36.511 : en:Another Parker fib?
00:23:21.511 : en:Pictures of an expedition.
00:26:43.511 : en:Elephant serenade.
00:29:06.511 : en:Fear of the unknown.
00:35:50.511 : en:Up the escarpment.
00:38:50.511 : en:Ocean bathing.
00:44:22.511 : en:Lion and woman tamer.
00:48:30.511 : en:What this ape wants.
00:52:52.511 : en:Deadly darkness.
00:54:55.511 : en:Taken by Tarzan.
00:58:00.511 : en:Python peril.
01:02:28.511 : en:Animal escort.
01:06:41.511 : en:Her first time.
01:09:30.511 : en:Mutual curiosity.
01:13:47.511 : en:Night's unrest.
01:17:01.511 : en:Next morning.
01:21:29.511 : en:Strange problem.
01:24:01.511 : en:Wanted.
01:28:15.511 : en:Captives.
01:30:20.511 : en:Cheetah brings word.
01:35:37.511 : en:Parker's ivory touch.
01:40:42.511 : en:Tarzan vs. Ivory King.
01:44:00.511 : en:Final loving pictures.
01:50:04.511 : en:End Credits romp.
• Исходник видео WEB-DL Amazon.

Сборка:


_________________
Проголосуй за трекер Открытый торрент трекер - RUS-MEDIA.ORG

Проголосуй Открытый торрент трекер - RUS-MEDIA.ORG


Вернуться к началу
 Профиль Отправить личное сообщение  
 
   Похожие торренты   Автор   Торрент   Размер 
В этой теме нет новых непрочитанных сообщений. Резиновый Тарзан / Gummi-Tarzan [драма, семейный, 1981] WEB-DL 1080p, Dvo

salma3

0 | 0

2.73 ГБ

В этой теме нет новых непрочитанных сообщений. Тарзан. Легенда / The Legend of Tarzan ( Боевик, драма, мелодрама, приключения, 2016) Blu-Ray 1080p | 3D-Video | Лицензия

marya111

66 | 19

35.73 ГБ

В этой теме нет новых непрочитанных сообщений. Тарзан. Легенда / The Legend of Tarzan [боевик, драма, мелодрама, приключения, 2016] BDRip 1080p, Dub [iTunes]

marya111

756 | 76

7.46 ГБ

В этой теме нет новых непрочитанных сообщений. Тарзан. Легенда / The Legend of Tarzan (Дэвид Йэтсс) [2016, Боевик, драма, мелодрама, приключения , Blu-Ray Remux 1080p] [DD5.1] [Dub Rus, Englis + Subs Rus,ENG]

Враг Нароода

4 | 7

21.22 ГБ

В этой теме нет новых непрочитанных сообщений. Тарзан. Легенда / The Legend of Tarzan [Боевик, приключения, 2016] WEBRip, Mvo

salma3

2711 | 266

1.46 ГБ

В этой теме нет новых непрочитанных сообщений. Тарзан: Героические приключения / Tarzan: The Epic Adventures / / 1 сезон 1-22 серии из 22 [Приключения, фэнтези, экранизация, 1996-2000] WEB-DLRip, Mvo

salma3

98 | 47

12.08 ГБ

В этой теме нет новых непрочитанных сообщений. Повторный Тарзан. Легенда / The Legend of Tarzan (Приключения, 2016) HDRip от NovaLan| iTunes Данный торрент является блокированным, причина: повторный торрент

marya111

77 | 38

2.05 ГБ


Начать новую тему Ответить на тему  [ 1 сообщение ] 




Для Мосгорсуда, Роскомнадзора и рекламодателей:: mosgorsud-torrent[собачка]yandex.ru
cron