Торрент файл
скачать торрент магнет ссылка Добавлен: 14 июн 2018, 20:39
Размер: 2.48 ГБ
Сидеров: 9
Личеров: 4
Статус: (salma3)
Автор

СообщениеДобавлено: 14 июн 2018, 20:39 

Не в сети
Супермодератор
Аватара пользователя
Дата регистрации:
15 фев 2012, 16:44
Возраст: 29
Спасибо: 7331 / 2147
Сообщения: 73810
Год выпуска: 2017
Жанр: Ужасы, фантастика, детектив
Режиссер: Джастин Барбер

В ролях: Флоренс Хэртиган, Люк Спенсер Робертс, Челси Лопез, Джастин Мэтьюз, Клинт Джордан, Сид Стриттмэттер, Джанин Джексон, Мэтт Бидел, Ана Дела Крус, МакКензи Фиргенз

О фильме:
Софи помнит старшего брата Джоша очень плохо, потому что 20 лет назад, как раз вовремя празднования её шестилетия, вся семья стала свидетелями необычного свечения в небе над Аризоной. После этого Джош нашёл единомышленников, и ребята решили выяснить истинную природу странных огней. Несколько дней спустя трое подростков бесследно пропали. Теперь уже взрослой Софи пытается узнать, что же случилось с её братом много лет назад.



Страна: США
Продолжительность: 01:26:42
Перевод: Профессиональный (многоголосый, закадровый) | iTunes

Качество: BDRip-AVC
Видео: 1024x576 (2.40:1), 23,976 fps, x264 ~3 273 kbps avg, 0.231 bit/pixel
Аудио1: 48 kHz, AC3 Dolby Digital, 3/2 (L,C,R,l,r) + LFE ch, ~384.00 kbps avg | RUS (iTunes)
Аудио2: 48 kHz, AC3 Dolby Digital, 3/2 (L,C,R,l,r) + LFE ch, ~448.00 kbps avg | ENG

Общее
Уникальный идентификатор : 173072908540899449638152444333775112717 (0x8234A134D01B578BB91ECD87BF87CA0D)
Полное имя : E:OlLanDGroupPhoenix.Forgotten.2017.BDRip(AVC).OlLanDGroup.mkv
Формат : Matroska
Версия формата : Version 4 / Version 2
Размер файла : 2,48 Гбайт
Продолжительность : 1 ч. 26 м.
Общий поток : 4098 Кбит/сек
Название фильма : Phoenix.Forgotten.2017 #TorpedoUK#
Дата кодирования : UTC 2018-06-14 14:13:49
Программа кодирования : mkvmerge v8.3.0 ('Over the Horizon') 64bit
Библиотека кодирования : libebml v1.3.1 + libmatroska v1.4.2

Видео
Идентификатор : 1
Формат : AVC
Формат/Информация : Advanced Video Codec
Профиль формата : High@L4.1
Параметр CABAC формата : Да
Параметр ReFrames формата : 10 кадров
Идентификатор кодека : V_MPEG4/ISO/AVC
Продолжительность : 1 ч. 26 м.
Битрейт : 3273 Кбит/сек
Ширина : 1024 пикселя
Высота : 576 пикселей
Соотношение сторон : 16:9
Режим частоты кадров : Постоянный
Частота кадров : 23,976 (24000/1001) кадра/сек
Цветовое пространство : YUV
Субдискретизация насыщенности : 4:2:0
Битовая глубина : 8 бит
Тип развёртки : Прогрессивная
Бит/(Пиксели*Кадры) : 0.231
Размер потока : 1,98 Гбайт (80%)
Библиотека кодирования : x264 core 146 r2538 121396c
Настройки программы : cabac=1 / ref=10 / deblock=1:-3:-3 / analyse=0x3:0x133 / me=umh / subme=11 / psy=1 / psy_rd=0.99:0.05 / mixed_ref=1 / me_range=48 / chroma_me=1 / trellis=2 / 8x8dct=1 / cqm=0 / deadzone=21,11 / fast_pskip=1 / chroma_qp_offset=-3 / threads=6 / lookahead_threads=1 / sliced_threads=0 / nr=0 / decimate=1 / interlaced=0 / bluray_compat=0 / constrained_intra=0 / bframes=10 / b_pyramid=2 / b_adapt=2 / b_bias=0 / direct=3 / weightb=1 / open_gop=0 / weightp=2 / keyint=240 / keyint_min=23 / scenecut=40 / intra_refresh=0 / rc_lookahead=40 / rc=2pass / mbtree=0 / bitrate=3273 / ratetol=1.0 / qcomp=0.60 / qpmin=0 / qpmax=69 / qpstep=4 / cplxblur=20.0 / qblur=0.5 / vbv_maxrate=50000 / vbv_bufsize=62500 / nal_hrd=none / filler=0 / ip_ratio=1.40 / pb_ratio=1.30 / aq=1:1.00
Язык : English
Default : Да
Forced : Нет

Аудио #1
Идентификатор : 2
Формат : AC-3
Формат/Информация : Audio Coding 3
Расширение режима : CM (complete main)
Параметр Endianness формата : Big
Идентификатор кодека : A_AC3
Продолжительность : 1 ч. 26 м.
Вид битрейта : Постоянный
Битрейт : 384 Кбит/сек
Каналы : 6 каналов
Расположение каналов : Front: L C R, Side: L R, LFE
Частота : 48,0 КГц
Частота кадров : 31,250 кадров/сек (1536 spf)
Битовая глубина : 16 бит
Метод сжатия : С потерями
Размер потока : 238 Мбайт (9%)
Заголовок : iTunes
Язык : Russian
Default : Да
Forced : Нет

Аудио #2
Идентификатор : 3
Формат : AC-3
Формат/Информация : Audio Coding 3
Расширение режима : CM (complete main)
Параметр Endianness формата : Big
Идентификатор кодека : A_AC3
Продолжительность : 1 ч. 26 м.
Вид битрейта : Постоянный
Битрейт : 448 Кбит/сек
Каналы : 6 каналов
Расположение каналов : Front: L C R, Side: L R, LFE
Частота : 48,0 КГц
Частота кадров : 31,250 кадров/сек (1536 spf)
Битовая глубина : 16 бит
Метод сжатия : С потерями
Размер потока : 278 Мбайт (11%)
Заголовок : Original
Язык : English
Default : Нет
Forced : Нет

Текст #1
Идентификатор : 4
Формат : UTF-8
Идентификатор кодека : S_TEXT/UTF8
Идентификатор кодека/Информация : UTF-8 Plain Text
Продолжительность : 1 ч. 18 м.
Битрейт : 84 бит/сек
Count of elements : 1353
Размер потока : 48,6 Кбайт (0%)
Заголовок : Full
Язык : English
Default : Нет
Forced : Нет

Текст #2
Идентификатор : 5
Формат : UTF-8
Идентификатор кодека : S_TEXT/UTF8
Идентификатор кодека/Информация : UTF-8 Plain Text
Продолжительность : 1 ч. 23 м.
Битрейт : 92 бит/сек
Count of elements : 1464
Размер потока : 56,5 Кбайт (0%)
Заголовок : SDH
Язык : English
Default : Нет
Forced : Нет

Меню
00:00:00.000 : en:00:00:00.000
00:02:51.463 : en:00:02:51.463
00:05:52.060 : en:00:05:52.060
00:09:26.399 : en:00:09:26.399
00:12:09.604 : en:00:12:09.604
00:14:51.849 : en:00:14:51.849
00:18:09.714 : en:00:18:09.714
00:20:33.357 : en:00:20:33.357
00:23:52.640 : en:00:23:52.640
00:27:32.484 : en:00:27:32.484
00:29:49.746 : en:00:29:49.746
00:32:22.899 : en:00:32:22.899
00:35:52.567 : en:00:35:52.567
00:37:49.642 : en:00:37:49.642
00:40:34.891 : en:00:40:34.891
00:44:01.264 : en:00:44:01.264
00:46:37.628 : en:00:46:37.628
00:49:23.419 : en:00:49:23.419
00:52:57.800 : en:00:52:57.800
00:54:51.163 : en:00:54:51.163
00:57:02.085 : en:00:57:02.085
01:01:04.578 : en:01:01:04.578
01:05:02.565 : en:01:05:02.565
01:08:44.495 : en:01:08:44.495
01:13:22.440 : en:01:13:22.440
01:16:10.524 : en:01:16:10.524
01:18:55.648 : en:01:18:55.648
01:20:19.815 : en:01:20:19.815






Релиз от: Rip by:


_________________
Проголосуй за трекер Открытый торрент трекер - RUS-MEDIA.ORG

Проголосуй Открытый торрент трекер - RUS-MEDIA.ORG


Вернуться к началу
 Профиль Отправить личное сообщение  
 
   Похожие торренты   Автор   Торрент   Размер 
В этой теме нет новых непрочитанных сообщений. Забытый феникс / Phoenix Forgotten [Ужасы, фантастика, детектив, 2017] BDRip, Mvo [iTunes]

salma3

0 | 4

1.42 ГБ

В этой теме нет новых непрочитанных сообщений. Забытый феникс / Phoenix Forgotten [Ужасы, фантастика, детектив, 2017] BDRip, Mvo [iTunes]

salma3

0 | 0

1.42 ГБ

В этой теме нет новых непрочитанных сообщений. Забытый феникс / Phoenix Forgotten [Ужасы, фантастика, триллер, 2017] BDRip 1080p, Mvo [iTunes]

salma3

0 | 1

7.58 ГБ

В этой теме нет новых непрочитанных сообщений. Забытый феникс / Phoenix Forgotten [Ужасы, фантастика, триллер, 2017] BDRip 720p, Mvo [iTunes]

salma3

0 | 1

4.25 ГБ

В этой теме нет новых непрочитанных сообщений. Забытый Феникс / Phoenix Forgotten [ужасы, фантастика, детектив, 2017] HDRip, Mvo

salma3

482 | 90

1.37 ГБ

В этой теме нет новых непрочитанных сообщений. Феникс / Phoenix [Драма, криминал, 1998] WEB-DLRip, Dvo

salma3

6 | 0

1.46 ГБ

В этой теме нет новых непрочитанных сообщений. Феникс / Phoenix [Драма, криминал, 1998] WEB-DLRip-AVC, Dvo+Avo+Sub

salma3

34 | 26

2.9 ГБ


Начать новую тему Ответить на тему  [ 1 сообщение ] 




Для Мосгорсуда, Роскомнадзора и рекламодателей:: mosgorsud-torrent[собачка]yandex.ru
cron