Торрент файл
скачать торрент магнет ссылка Добавлен: 26 янв 2017, 16:54
Размер: 2.16 ГБ
Сидеров: 161
Личеров: 65
Статус: (salma3)
Автор

СообщениеДобавлено: 09 янв 2017, 16:29 

Не в сети
Дата регистрации:
28 сен 2016, 18:10
Спасибо: 203 / 0
Сообщения: 2003
Год выпуска: 2016
Жанр: триллер, драма, детектив
Режиссер: Тейт Тейлор

В ролях: Эмили Блант, Хейли Беннетт, Ребекка Фергюсон, Джастин Теру, Люк Эванс, Эдгар Рамирес, Лора Припон, Эллисон Дженни, Лиза Кудроу

Описание:
Каждый день поезд проносит Рэйчел мимо очаровательного коттеджа, где живет идеальная на первый взгляд пара. Но однажды идиллия разрушится - прекрасная незнакомка бесследно исчезнет. Рэйчел окажется втянута в весьма запутанную историю, ведь только она видела из окна то, что было скрыто ото всех.



Страна: США
Продолжительность: 01:52:05
Перевод: Профессиональный (полное дублирование) [лицензия]
Субтитры: Русские, английские

Качество: BDRip-AVC
Видео: 1032x558 (1.85:1), 23.976 fps, AVC MPEG-4 (H.264), High@L4.1 ~1867 kbps, 0.135 bit/pixel
Аудио1: Русский: 48 kHz, AC3 Dolby Digital, 3/2 (L,C,R,l,r) + LFE ch, ~448 kbps
Аудио2: Английский: 48 kHz, AC3 Dolby Digital, 3/2 (L,C,R,l,r) + LFE ch, ~384 kbps


Format : Matroska
Format version : Version 4 / Version 2
File size : 2.16 GiB
Duration : 1h 52 min
Overall bit rate : 2 754 kb/s
Movie name : Девушка в поезде / The Girl on the Train (2016) :: AFM ::
Encoded date : UTC 2017-01-26 08:01:31
Writing application : mkvmerge v8.3.0 ('Over the Horizon') 32bit
Writing library : libebml v1.3.1 + libmatroska v1.4.2

Video
ID : 1
Format : AVC
Format/Info : Advanced Video Codec
Format profile : High@L4.1
Format settings, CABAC : Yes
Format settings, ReFrames : 11 frames
Codec ID : V_MPEG4/ISO/AVC
Duration : 1h 52 min
Bit rate : 1 867 kb/s
Width : 1 032 pixels
Height : 558 pixels
Display aspect ratio : 1.85:1
Frame rate mode : Constant
Frame rate : 23.976 (24000/1001) FPS
Color space : YUV
Chroma subsampling : 4:2:0
Bit depth : 8 bits
Scan type : Progressive
Bits/(Pixel*Frame) : 0.135
Stream size : 1.46 GiB (68%)
Title : BDRip by AFM
Writing library : x264 core 148 r2744+55 950084e t_mod_Custom [8-bit@all X86_64]
Encoding settings : cabac=1 / ref=11 / deblock=1:-3:-3 / analyse=0x3:0x113 / me=umh / subme=10 / psy=1 / fade_compensate=0.00 / psy_rd=1.00:0.00 / mixed_ref=1 / me_range=32 / chroma_me=1 / trellis=2 / 8x8dct=1 / cqm=0 / deadzone=21,11 / fast_pskip=0 / chroma_qp_offset=-2 / threads=6 / lookahead_threads=1 / sliced_threads=0 / nr=0 / decimate=1 / interlaced=0 / bluray_compat=0 / constrained_intra=0 / fgo=0 / bframes=13 / b_pyramid=2 / b_adapt=2 / b_bias=0 / direct=1 / weightb=1 / open_gop=0 / weightp=2 / keyint=240 / keyint_min=23 / scenecut=40 / intra_refresh=0 / rc_lookahead=40 / rc=crf / mbtree=0 / crf=19.2200 / qcomp=0.65 / qpmin=0:0:0 / qpmax=69:69:69 / qpstep=4 / vbv_maxrate=50000 / vbv_bufsize=62500 / crf_max=0.0 / nal_hrd=none / filler=0 / ip_ratio=1.33 / pb_ratio=1.25 / aq=3:0.80 / aq-sensitivity=10.00 / aq-factor=1.00:1.00:1.00 / aq2=0 / aq3=0 / zones=153095,161239,q=30
Language : English
Default : Yes
Forced : No

Audio #1
ID : 2
Format : AC-3
Format/Info : Audio Coding 3
Mode extension : CM (complete main)
Format settings, Endianness : Big
Codec ID : A_AC3
Duration : 1h 52 min
Bit rate mode : Constant
Bit rate : 448 kb/s
Channel(s) : 6 channels
Channel positions : Front: L C R, Side: L R, LFE
Sampling rate : 48.0 kHz
Frame rate : 31.250 FPS (1536 spf)
Compression mode : Lossy
Stream size : 359 MiB (16%)
Title : Dub, AC3 5.1 ~448 kbps
Language : Russian
Default : Yes
Forced : No

Audio #2
ID : 3
Format : AC-3
Format/Info : Audio Coding 3
Mode extension : CM (complete main)
Format settings, Endianness : Big
Codec ID : A_AC3
Duration : 1h 52 min
Bit rate mode : Constant
Bit rate : 384 kb/s
Channel(s) : 6 channels
Channel positions : Front: L C R, Side: L R, LFE
Sampling rate : 48.0 kHz
Frame rate : 31.250 FPS (1536 spf)
Compression mode : Lossy
Stream size : 308 MiB (14%)
Title : Original, AC3 5.1 ~384 kbps
Language : English
Default : No
Forced : No

Text #1
ID : 4
Format : UTF-8
Codec ID : S_TEXT/UTF8
Codec ID/Info : UTF-8 Plain Text
Title : forced
Language : Russian
Default : Yes
Forced : No

Text #2
ID : 5
Format : UTF-8
Codec ID : S_TEXT/UTF8
Codec ID/Info : UTF-8 Plain Text
Language : Russian
Default : No
Forced : No

Text #3
ID : 6
Format : UTF-8
Codec ID : S_TEXT/UTF8
Codec ID/Info : UTF-8 Plain Text
Language : English
Default : No
Forced : No

Text #4
ID : 7
Format : UTF-8
Codec ID : S_TEXT/UTF8
Codec ID/Info : UTF-8 Plain Text
Title : SDH
Language : English
Default : No
Forced : No

Menu
00:00:00.000 : en:Chapter 1
00:06:01.778 : en:Chapter 2
00:09:29.901 : en:Chapter 3
00:18:15.969 : en:Chapter 4
00:25:26.148 : en:Chapter 5
00:32:04.505 : en:Chapter 6
00:37:04.971 : en:Chapter 7
00:44:52.312 : en:Chapter 8
00:49:22.457 : en:Chapter 9
00:55:07.011 : en:Chapter 10
00:59:36.030 : en:Chapter 11
01:03:34.811 : en:Chapter 12
01:09:25.786 : en:Chapter 13
01:14:36.430 : en:Chapter 14
01:19:08.702 : en:Chapter 15
01:23:44.728 : en:Chapter 16
01:28:07.488 : en:Chapter 17
01:33:49.456 : en:Chapter 18
01:38:54.552 : en:Chapter 19
01:45:55.180 : en:Chapter 20




реклама партнёра


Вернуться к началу
 Профиль Отправить личное сообщение  
 
   Похожие торренты   Автор   Торрент   Размер 
В этой теме нет новых непрочитанных сообщений. Девушка в поезде / The Girl on the Train [триллер, драма, детектив, 2016] BDRip, Dub [КПК] [Лицензия]

salma3

40 | 10

720.45 МБ

В этой теме нет новых непрочитанных сообщений. Девушка в поезде / The Girl on the Train [триллер, драма, детектив, 2016] BDRip, Dub+Sub [Лицензия]

salma3

902 | 298

1.46 ГБ

В этой теме нет новых непрочитанных сообщений. Девушка в поезде / The Girl on the Train [триллер, драма, детектив, 2016] BDRip, Dub+Sub [Лицензия]

salma3

270 | 96

745.16 МБ

В этой теме нет новых непрочитанных сообщений. Девушка в поезде / The Girl on the Train [триллер, драма, детектив, 2016] BDRip-AVC, Dub+Sub [лицензия]

marya111

100 | 40

2.87 ГБ

В этой теме нет новых непрочитанных сообщений. Девушка в поезде / The Girl on the Train [триллер, драма, детектив, 2016] BDRip 720p, Dub+Sub [Лицензия]

salma3

249 | 122

5.56 ГБ

В этой теме нет новых непрочитанных сообщений. Девушка в поезде / The Girl on the Train (триллер, драма, детектив, 2016) BDRip-AVC от HELLYWOOD | Лицензия

marya111

379 | 54

2.18 ГБ

В этой теме нет новых непрочитанных сообщений. Девушка в поезде / The Girl on the Train [триллер, драма, детектив, 2016] BDRip 1080p, Dub+Sub [Лицензия]

salma3

79 | 24

11.43 ГБ


СообщениеДобавлено: 26 янв 2017, 16:55 

В сети
Супермодератор
Аватара пользователя
Дата регистрации:
15 фев 2012, 16:44
Возраст: 27
Спасибо: 5954 / 2115
Сообщения: 28520
marya111 писал(а):
Re: Девушка в поезде / The Girl on the Train [триллер, драма, детектив, 2016] BDRip-AVC, Dub+Sub [лицензия]

_________________
Проголосуй за трекер Открытый торрент трекер - RUS-MEDIA.ORG



Вернуться к началу
 Профиль Отправить личное сообщение  
 
Начать новую тему Ответить на тему  [ Сообщений: 2 ] 




Для Мосгорсуда, Роскомнадзора и рекламодателей:: mosgorsud-torrent[собачка]yandex.ru