Торрент файл
скачать торрент магнет ссылка Добавлен: 09 янв 2017, 12:18
Размер: 6.52 ГБ
Сидеров: 1171
Личеров: 299
Статус: (salma3)
Автор

СообщениеДобавлено: 09 янв 2017, 12:18 

Не в сети
Супермодератор
Аватара пользователя
Дата регистрации:
15 фев 2012, 16:44
Возраст: 27
Спасибо: 6147 / 2121
Сообщения: 31384
Год выпуска: 2006
Жанр: драма, мелодрама, комедия
Выпущено: Великобритания
Режиссер: Шон Эллис
В ролях: Шон Биггерстаф , Эмилия Фокс , Стюарт Гудвин , Майкл Лэмбурн , Майкл Диксон , Мишель Райан , Эрика Эллис , Джей Бауэн , Шон Эванс , Кеннет Фахи , Стэн Эллис , Кэти Болл
Перевод: Профессиональный двухголосый, Авторский одноголосый


Сюжет фильма:
Переживая болезненное расставание с любимой, Бен впадает в бессонницу. В освободившиеся 8 часов он начинает работать в ночную смену местного супермаркета, где главной задачей обслуживающего персонала является «времяубийство». Неожиданно Бен обнаруживает в себе необычную способность останавливать время, что даёт толчок его художественному таланту.



Качество: BDRip 720p
Формат: AVC (библиотека кодирования x.264)
Контейнер (Расширение): MKV
Видео: 1280x544, 7630 Кбит/сек, 23,976 кадр/сек, 0,457 Бит/[Пиксели*Кадры]
Аудио №1: русский / AC3 / 5.1 / 48 kHz / 448 kbps / |Профессиональный двухголосый, Студия Инис|
Аудио №2: русский / AC3 / 5.1 / 48 kHz / 448 kbps / |Авторский одноголосый, Антон Алексеев|
Аудио №3: английский / AC3 / 5.1 / 48 kHz / 640 kbps /
Субтитры: русские, английские, английские (SDH)
Навигация по главам(Чаптеры): есть
Продолжительность: 01:42:03
Видеоряд CtrlHD

Релиз от: Группа:


Format : Matroska
Format version : Version 2
File size : 6.52 GiB
Duration : 1 h 42 min
Overall bit rate : 9 150 kb/s
Movie name : Cashback.(2006).BDRip.720p.[denis100]
Encoded date : UTC 2017-01-08 10:58:21
Writing application : mkvmerge v5.8.0 ('No Sleep / Pillow') built on Sep 2 2012 15:37:04
Writing library : libebml v1.2.3 + libmatroska v1.3.0

Video
ID : 1
Format : AVC
Format/Info : Advanced Video Codec
Format profile : High@L4.1
Format settings, CABAC : Yes
Format settings, ReFrames : 12 frames
Codec ID : V_MPEG4/ISO/AVC
Duration : 1 h 42 min
Bit rate : 7 630 kb/s
Width : 1 280 pixels
Height : 544 pixels
Display aspect ratio : 2.35:1
Frame rate mode : Constant
Frame rate : 23.976 (24000/1001) FPS
Color space : YUV
Chroma subsampling : 4:2:0
Bit depth : 8 bits
Scan type : Progressive
Bits/(Pixel*Frame) : 0.457
Stream size : 5.30 GiB (81%)
Title : Cashback.(2006).BDRip.720p.[denis100]
Writing library : x264 core 138 r2358kMod 9e941d1
Encoding settings : cabac=1 / ref=12 / deblock=1:-3:-3 / analyse=0x3:0x113 / me=esa / subme=10 / psy=1 / fade_compensate=0.00 / psy_rd=1.05:0.00 / mixed_ref=1 / me_range=16 / chroma_me=1 / trellis=2 / 8x8dct=1 / cqm=0 / deadzone=21,11 / fast_pskip=0 / chroma_qp_offset=-2 / threads=6 / lookahead_threads=1 / sliced_threads=0 / nr=0 / decimate=0 / interlaced=0 / bluray_compat=0 / constrained_intra=0 / bframes=8 / b_pyramid=2 / b_adapt=2 / b_bias=0 / direct=3 / weightb=1 / open_gop=0 / weightp=2 / keyint=250 / keyint_min=23 / scenecut=40 / intra_refresh=0 / rc_lookahead=80 / rc=2pass / mbtree=0 / bitrate=7630 / ratetol=1.0 / qcomp=0.70 / qpmin=0 / qpmax=69 / qpstep=4 / cplxblur=20.0 / qblur=0.5 / vbv_maxrate=20000 / vbv_bufsize=15000 / nal_hrd=none / ip_ratio=1.30 / pb_ratio=1.10 / aq=1:1.00
Language : English
Default : Yes
Forced : No

Audio #1
ID : 2
Format : AC-3
Format/Info : Audio Coding 3
Mode extension : CM (complete main)
Format settings, Endianness : Big
Codec ID : A_AC3
Duration : 1 h 42 min
Bit rate mode : Constant
Bit rate : 448 kb/s
Channel(s) : 6 channels
Channel positions : Front: L C R, Side: L R, LFE
Sampling rate : 48.0 kHz
Frame rate : 31.250 FPS (1536 spf)
Compression mode : Lossy
Stream size : 327 MiB (5%)
Title : DVO, Studio Inis
Language : Russian
Default : Yes
Forced : No

Audio #2
ID : 3
Format : AC-3
Format/Info : Audio Coding 3
Mode extension : CM (complete main)
Format settings, Endianness : Big
Codec ID : A_AC3
Duration : 1 h 42 min
Bit rate mode : Constant
Bit rate : 448 kb/s
Channel(s) : 6 channels
Channel positions : Front: L C R, Side: L R, LFE
Sampling rate : 48.0 kHz
Frame rate : 31.250 FPS (1536 spf)
Compression mode : Lossy
Stream size : 327 MiB (5%)
Title : AVO, А.Алексеев
Language : Russian
Default : No
Forced : No

Audio #3
ID : 4
Format : AC-3
Format/Info : Audio Coding 3
Mode extension : CM (complete main)
Format settings, Endianness : Big
Codec ID : A_AC3
Duration : 1 h 42 min
Bit rate mode : Constant
Bit rate : 640 kb/s
Channel(s) : 6 channels
Channel positions : Front: L C R, Side: L R, LFE
Sampling rate : 48.0 kHz
Frame rate : 31.250 FPS (1536 spf)
Compression mode : Lossy
Stream size : 467 MiB (7%)
Language : English
Default : No
Forced : No

Text #1
ID : 5
Format : UTF-8
Codec ID : S_TEXT/UTF8
Codec ID/Info : UTF-8 Plain Text
Language : Russian
Default : No
Forced : No

Text #2
ID : 6
Format : UTF-8
Codec ID : S_TEXT/UTF8
Codec ID/Info : UTF-8 Plain Text
Language : English
Default : No
Forced : No

Text #3
ID : 7
Format : UTF-8
Codec ID : S_TEXT/UTF8
Codec ID/Info : UTF-8 Plain Text
Title : SDH
Language : English
Default : No
Forced : No

Menu
00:00:00.000 : en:Chapter 1
00:01:20.747 : en:Chapter 2
00:04:24.639 : en:Chapter 3
00:10:39.973 : en:Chapter 4
00:13:39.152 : en:Chapter 5
00:16:52.678 : en:Chapter 6
00:21:46.305 : en:Chapter 7
00:25:01.500 : en:Chapter 8
00:29:24.763 : en:Chapter 9
00:32:43.503 : en:Chapter 10
00:34:31.236 : en:Chapter 11
00:40:06.362 : en:Chapter 12
00:44:31.419 : en:Chapter 13
00:47:32.308 : en:Chapter 14
00:55:26.823 : en:Chapter 15
00:58:53.780 : en:Chapter 16
01:03:36.229 : en:Chapter 17
01:11:02.467 : en:Chapter 18
01:13:21.355 : en:Chapter 19
01:17:19.802 : en:Chapter 20
01:21:34.973 : en:Chapter 21
01:28:49.908 : en:Chapter 22
01:30:38.683 : en:Chapter 23
01:35:57.752 : en:Chapter 24
x264 [info]: frame I:1128 Avg QP:15.44 size:119535
x264 [info]: frame P:30367 Avg QP:17.28 size: 57433
x264 [info]: frame B:115321 Avg QP:17.31 size: 34242
x264 [info]: consecutive B-frames: 1.5% 2.0% 5.4% 22.2% 17.3% 38.3% 6.0% 4.3% 3.0%


_________________
Проголосуй за трекер Открытый торрент трекер - RUS-MEDIA.ORG

Проголосуй Открытый торрент трекер - RUS-MEDIA.ORG



реклама партнёра


Вернуться к началу
 Профиль Отправить личное сообщение  
 
   Похожие торренты   Автор   Торрент   Размер 
В этой теме нет новых непрочитанных сообщений. Возврат / Cashback [драма, мелодрама, комедия, 2005] BDRip, Dvo

salma3

164 | 33

1.46 ГБ

В этой теме нет новых непрочитанных сообщений. Пенелопа / Penelope [фэнтези, мелодрама, комедия, 2006] BDRip 720p, Dub+Sub

salma3

93 | 2

2.66 ГБ

В этой теме нет новых непрочитанных сообщений. Иллюзионист / The Illusionist [триллер, драма, мелодрама, детектив, 2006] BDRip 720p, Dub

salma3

81 | 35

10.3 ГБ

В этой теме нет новых непрочитанных сообщений. Возврат / Reclaim [триллер, 2014] BDRip 1080p, dvo+sub

Dracon

415 | 23

9.42 ГБ

В этой теме нет новых непрочитанных сообщений. Последний подарок / The Ultimate Gift [Драма, мелодрама, семейный, 2006] BDRip 720p, Mvo+Sub

salma3

114 | 3

5.58 ГБ

В этой теме нет новых непрочитанных сообщений. Кровь и шоколад / Blood and Chocolate [фэнтези, драма, мелодрама, 2006] BDRip 720p, Dub

salma3

17 | 12

4.64 ГБ

В этой теме нет новых непрочитанных сообщений. Мирный воин / Peaceful Warrior [Драма, мелодрама, спорт, биография, 2006] BDRip 720p, Mvo+Sub

salma3

136 | 11

4.31 ГБ


Начать новую тему Ответить на тему  [ 1 сообщение ] 




Для Мосгорсуда, Роскомнадзора и рекламодателей:: mosgorsud-torrent[собачка]yandex.ru