Торрент файл
скачать торрент магнет ссылка Добавлен: Сегодня, 00:49
Размер: 6.72 ГБ
Сидеров: 594
Личеров: 723
Статус: (salma3)
Автор

СообщениеДобавлено: 07 янв 2017, 22:18 

В сети
Супермодератор
Аватара пользователя
Дата регистрации:
15 фев 2012, 16:44
Возраст: 27
Спасибо: 5535 / 2105
Сообщения: 21209
Год выхода: 2016
Жанр: триллер, драма
Режиссер: Том Форд

В ролях: Эми Адамс, Джейк Джилленхол, Майкл Шеннон, Аарон Тейлор-Джонсон, Айла Фишер, Элли Бамбер, Арми Хаммер, Карл Глусман, Роберт Арамайо, Лора Линни

О фильме: У Сьюзен роскошная жизнь в Лос-Анджелесе, прекрасный муж и собственная галерея. Но однажды она получает неожиданную посылку от бывшего супруга — он хотел бы встретиться, но сначала просит прочитать его новый роман. Сьюзен не подозревает, что как только она откроет рукопись, она вернется в прошлое, которое считала надежно укрытым под покровом ночи.



Выпущено: США
Продолжительность: 01:49:55
Озвучивание: Профессиональный (дублированный) [Лицензия]

Файл
Формат: Matroska
Качество: BDRip 720p
Видео: 1280x528 at 23.976 fps, x264@L4.1, ~6000 kbps avg
Aудио1: Russian: 48 kHz, DTS, 3/2 (L,C,R,l,r) + LFE ch, ~768 kbps avg |Дубляж, Blu-ray CEE|
Aудио2: English: 48 kHz, DTS, 3/2 (L,C,R,l,r) + LFE ch, ~1509 kbps avg
Субтитры: Russian (Forced, Blu-ray CEE), Russian (Blu-ray CEE), English, English (SDH)

***Сохранены оригинальные главы как на Blu-ray.
***Работа над субтитрами: Elheym.
***Видеоряд - IDE!
***Logo +1 scene debanded.

Общее
Уникальный идентификатор : 237889290528254526444003286584816639245 (0xB2F7CF911896BE62B050559224B51D0D)
Полное имя : Nocturnal.Animals.2016.720p.BluRay.DTS.Rus.Eng.HDCLUB.mkv
Формат : Matroska
Версия формата : Version 2
Размер файла : 6,72 Гбайт
Продолжительность : 1 ч. 56 м.
Общий поток : 8283 Кбит/сек
Название фильма : Nocturnal Animals (2016) - Release for HDCLUB
Дата кодирования : UTC 2017-02-24 10:35:33
Программа кодирования : mkvmerge v3.4.0 ('Rapunzel') built on May 15 2010 09:38:20
Библиотека кодирования : libebml v0.8.0 + libmatroska v0.9.0

Видео
Идентификатор : 1
Формат : AVC
Формат/Информация : Advanced Video Codec
Профиль формата : High@L4.1
Параметр CABAC формата : Да
Параметр ReFrames формата : 12 кадров
Идентификатор кодека : V_MPEG4/ISO/AVC
Продолжительность : 1 ч. 56 м.
Битрейт : 6000 Кбит/сек
Ширина : 1280 пикселей
Высота : 528 пикселей
Соотношение сторон : 2,40:1
Режим частоты кадров : Постоянный
Частота кадров : 23,976 кадра/сек
Цветовое пространство : YUV
Субдискретизация насыщенности : 4:2:0
Битовая глубина : 8 бит
Тип развёртки : Прогрессивная
Бит/(Пиксели*Кадры) : 0.370
Размер потока : 4,74 Гбайт (71%)
Заголовок : Nocturnal Animals (2016) - Release for HDCLUB
Библиотека кодирования : x264 core 148 r2744 b97ae06
Настройки программы : cabac=1 / ref=12 / deblock=1:-3:-3 / analyse=0x3:0x133 / me=tesa / subme=11 / psy=1 / psy_rd=1.05:0.00 / mixed_ref=1 / me_range=32 / chroma_me=1 / trellis=2 / 8x8dct=1 / cqm=0 / deadzone=21,11 / fast_pskip=0 / chroma_qp_offset=-2 / threads=12 / lookahead_threads=2 / sliced_threads=0 / slices=4 / nr=0 / decimate=0 / interlaced=0 / bluray_compat=0 / constrained_intra=0 / bframes=9 / b_pyramid=2 / b_adapt=2 / b_bias=0 / direct=3 / weightb=1 / open_gop=0 / weightp=2 / keyint=250 / keyint_min=23 / scenecut=40 / intra_refresh=0 / rc_lookahead=40 / rc=2pass / mbtree=0 / bitrate=6000 / ratetol=1.0 / qcomp=0.60 / qpmin=0 / qpmax=69 / qpstep=4 / cplxblur=20.0 / qblur=0.5 / vbv_maxrate=50000 / vbv_bufsize=62500 / nal_hrd=none / filler=0 / ip_ratio=1.30 / pb_ratio=1.20 / aq=3:0.70 / zones=1,580,b=2/96990,97004,b=2
Язык : English
Default : Да
Forced : Нет
Коэффициенты матрицы : BT.709

Аудио #1
Идентификатор : 2
Формат : DTS
Формат/Информация : Digital Theater Systems
Режим : 16
Параметр Endianness формата : Big
Идентификатор кодека : A_DTS
Продолжительность : 1 ч. 56 м.
Вид битрейта : Постоянный
Битрейт : 768 Кбит/сек
Каналы : 6 каналов
Расположение каналов : Front: L C R, Side: L R, LFE
Частота : 48,0 КГц
Битовая глубина : 24 бит
Метод сжатия : С потерями
Размер потока : 638 Мбайт (9%)
Заголовок : DTS 5.1 @ 768 kbps - DUB, Blu-ray CEE
Язык : Russian
Default : Да
Forced : Нет

Аудио #2
Идентификатор : 3
Формат : DTS
Формат/Информация : Digital Theater Systems
Режим : 16
Параметр Endianness формата : Big
Идентификатор кодека : A_DTS
Продолжительность : 1 ч. 56 м.
Вид битрейта : Постоянный
Битрейт : 1509 Кбит/сек
Каналы : 6 каналов
Расположение каналов : Front: L C R, Side: L R, LFE
Частота : 48,0 КГц
Битовая глубина : 24 бит
Метод сжатия : С потерями
Размер потока : 1,22 Гбайт (18%)
Заголовок : DTS 5.1 @ 1536 kbps
Язык : English
Default : Нет
Forced : Нет

Текст #1
Идентификатор : 4
Формат : UTF-8
Идентификатор кодека : S_TEXT/UTF8
Идентификатор кодека/Информация : UTF-8 Plain Text
Заголовок : Forced, Blu-ray CEE
Язык : Russian
Default : Да
Forced : Нет

Текст #2
Идентификатор : 5
Формат : UTF-8
Идентификатор кодека : S_TEXT/UTF8
Идентификатор кодека/Информация : UTF-8 Plain Text
Заголовок : Blu-ray CEE
Язык : Russian
Default : Нет
Forced : Нет

Текст #3
Идентификатор : 6
Формат : UTF-8
Идентификатор кодека : S_TEXT/UTF8
Идентификатор кодека/Информация : UTF-8 Plain Text
Язык : English
Default : Нет
Forced : Нет

Текст #4
Идентификатор : 7
Формат : UTF-8
Идентификатор кодека : S_TEXT/UTF8
Идентификатор кодека/Информация : UTF-8 Plain Text
Заголовок : SDH
Язык : English
Default : Нет
Forced : Нет

Меню
00:00:00.000 : en:00:00:00.000
00:05:25.867 : en:00:05:25.867
00:09:35.742 : en:00:09:35.742
00:13:32.854 : en:00:13:32.854
00:19:32.755 : en:00:19:32.755
00:29:48.870 : en:00:29:48.870
00:34:29.901 : en:00:34:29.901
00:40:00.732 : en:00:40:00.732
00:45:11.334 : en:00:45:11.334
00:52:55.422 : en:00:52:55.422
00:59:37.407 : en:00:59:37.407
01:04:15.769 : en:01:04:15.769
01:12:49.615 : en:01:12:49.615
01:20:03.215 : en:01:20:03.215
01:25:11.898 : en:01:25:11.898
01:31:53.299 : en:01:31:53.299
01:35:24.010 : en:01:35:24.010
01:40:48.876 : en:01:40:48.876
01:45:04.590 : en:01:45:04.590
01:49:45.579 : en:01:49:45.579

Релиз:


_________________
Проголосуй за трекер Открытый торрент трекер - RUS-MEDIA.ORG

Не забудьте оставить комментарий!



реклама партнёра


Вернуться к началу
 Профиль Отправить личное сообщение  
 
   Похожие торренты   Автор   Торрент   Размер 
В этой теме нет новых непрочитанных сообщений. Под покровом ночи / Nocturnal Animals [триллер, драма, 2016] BDRip 1080p, Dub+Sub [Лицензия]

salma3

556 | 609

13.63 ГБ

В этой теме нет новых непрочитанных сообщений. Под покровом ночи / Nocturnal Animals [триллер, драма, 2016] HDRip, Dub [Лицензия]

salma3

84 | 51

2.18 ГБ

В этой теме нет новых непрочитанных сообщений. Под покровом ночи / Nocturnal Animals [триллер, драма, детектив, 2016] HDRip, Dub [Лицензия]

salma3

697 | 264

1.46 ГБ

В этой теме нет новых непрочитанных сообщений. Под покровом ночи / В холоде ночи / In The Cold Of The Night [Триллер, мелодрама, детектив, 1990] DVDRip, Avo

salma3

21 | 7

1.45 ГБ

В этой теме нет новых непрочитанных сообщений. Под покровом ночи / Nocturna [ужасы, триллер, 2015] HDRip, Avo

salma3

37 | 4

1.22 ГБ

В этой теме нет новых непрочитанных сообщений. Хозяева ночи / We Own the Night [триллер, драма, криминал, 2007] BDRip 720p, Dub [Лицензия]

salma3

106 | 2

5.75 ГБ

В этой теме нет новых непрочитанных сообщений. Под покровом ночи отсосала куму хуй [2014 г., Amateur, CamRip]

Dievas

46 | 5

147.72 МБ


СообщениеДобавлено: 08 фев 2017, 13:13 

В сети
Супермодератор
Аватара пользователя
Дата регистрации:
15 фев 2012, 16:44
Возраст: 27
Спасибо: 5535 / 2105
Сообщения: 21209
salma3 писал(а):
Re: Под покровом ночи / Nocturnal Animals [триллер, драма, 2016] WEB-DL 720p, Avo

_________________
Проголосуй за трекер Открытый торрент трекер - RUS-MEDIA.ORG

Не забудьте оставить комментарий!


Вернуться к началу
 Профиль Отправить личное сообщение  
 

СообщениеДобавлено: Сегодня, 01:43 

В сети
Супермодератор
Аватара пользователя
Дата регистрации:
15 фев 2012, 16:44
Возраст: 27
Спасибо: 5535 / 2105
Сообщения: 21209
salma3 писал(а):
Re: Под покровом ночи / Nocturnal Animals [триллер, драма, 2016] BDRip 720p, Dub+Sub [Лицензия]

_________________
Проголосуй за трекер Открытый торрент трекер - RUS-MEDIA.ORG

Не забудьте оставить комментарий!


Вернуться к началу
 Профиль Отправить личное сообщение  
 
Начать новую тему Ответить на тему  [ Сообщений: 3 ] 




Для Мосгорсуда, Роскомнадзора и рекламодателей:: mosgorsud-torrent[собачка]yandex.ru