Торрент файл
скачать торрент магнет ссылка Добавлен: 10 мар 2017, 21:39
Размер: 15.1 ГБ
Сидеров: 375
Личеров: 67
Статус: (salma3)
Автор

СообщениеДобавлено: 30 дек 2016, 00:17 

В сети
Супермодератор
Аватара пользователя
Дата регистрации:
15 фев 2012, 16:44
Возраст: 28
Спасибо: 6405 / 2128
Сообщения: 37905
Год выпуска: 2016
Жанр: Боевик, комедия
Режиссер: Грег Моттола

В ролях: Зак Галифианакис, Айла Фишер, Джон Хэмм, Галь Гадот, Пэттон Освальт, Минг Жао, Мэтт Уолш, Мэрибет Монро, Майкл Лью, Кевин Данн

О фильме:
Супружеская пара из пригорода оказывается втянутой в международный шпионский заговор, когда обнаруживает, что их, казалось бы, идеальные новые соседи являются правительственными агентами.



Страна: США
Студия: Fox 2000 Pictures, MacDonald/Parkes Productions
Продолжительность: 01:45:20
Перевод: Дублированный [Лицензия]

Файл
Качество: BDRip 1080p
Видео: MPEG-4 AVC, 1920x800, 17.8 Мbit/s, 23.976 fps
Аудио01: 48 kHz, DTS, 5.1, 768 Kbps | Дублированный [RU]
Аудио02: 48 kHz, AC3, 5.1, 448 Kbps | Дублированный [RUS]
Аудио03: 48 kHz, DTS-ES, 5.1, 1510 kbps | Оригинал [ENG]
Субтитры: Русские (forced, full), английские


General
Unique ID : 248203186897690021633214990049747076754 (0xBABA31EB1E1CD8468DAAA2492CCF0692)
Complete name : F:VideoKeeping.Up.with.the.Joneses.2016.BDRip.1080p.ExKinoRay.mkv
Format : Matroska
Format version : Version 4 / Version 2
File size : 15.1 GiB
Duration : 1 h 45 min
Overall bit rate : 20.5 Mb/s
Encoded date : UTC 2017-03-10 15:40:42
Writing application : mkvmerge v8.3.0 ('Over the Horizon') 64bit
Writing library : libebml v1.3.1 + libmatroska v1.4.2

Video
ID : 1
Format : AVC
Format/Info : Advanced Video Codec
Format profile : High@L4.1
Format settings, CABAC : Yes
Format settings, ReFrames : 5 frames
Codec ID : V_MPEG4/ISO/AVC
Duration : 1 h 45 min
Bit rate : 17.8 Mb/s
Width : 1 920 pixels
Height : 800 pixels
Display aspect ratio : 2.40:1
Frame rate mode : Constant
Frame rate : 23.976 (24000/1001) FPS
Color space : YUV
Chroma subsampling : 4:2:0
Bit depth : 8 bits
Scan type : Progressive
Bits/(Pixel*Frame) : 0.483
Stream size : 13.1 GiB (87%)
Writing library : x264 core 148 r2744kMod b97ae06
Encoding settings : cabac=1 / ref=5 / deblock=1:-3:-3 / analyse=0x3:0x133 / me=umh / subme=11 / psy=1 / fade_compensate=0.00 / psy_rd=1.15:0.00 / mixed_ref=1 / me_range=64 / chroma_me=1 / trellis=2 / 8x8dct=1 / cqm=0 / deadzone=21,11 / fast_pskip=0 / chroma_qp_offset=-2 / threads=12 / lookahead_threads=2 / sliced_threads=0 / nr=0 / decimate=0 / interlaced=0 / bluray_compat=0 / constrained_intra=0 / bframes=8 / b_pyramid=2 / b_adapt=2 / b_bias=0 / direct=3 / weightb=1 / open_gop=0 / weightp=2 / keyint=240 / keyint_min=2 / scenecut=40 / intra_refresh=0 / rc=2pass / mbtree=0 / bitrate=17800 / ratetol=1.0 / qcomp=0.70 / qpmin=0 / qpmax=69 / qpstep=4 / cplxblur=20.0 / qblur=0.5 / ip_ratio=1.25 / pb_ratio=1.20 / aq=3:0.80
Language : English
Default : Yes
Forced : No

Audio #1
ID : 2
Format : DTS
Format/Info : Digital Theater Systems
Mode : 16
Format settings, Endianness : Big
Codec ID : A_DTS
Duration : 1 h 45 min
Bit rate mode : Constant
Bit rate : 768 kb/s
Channel(s) : 6 channels
Channel positions : Front: L C R, Side: L R, LFE
Sampling rate : 48.0 kHz
Frame rate : 93.750 FPS (512 spf)
Bit depth : 24 bits
Compression mode : Lossy
Stream size : 579 MiB (4%)
Title : Dub [License]
Language : Russian
Default : Yes
Forced : No

Audio #2
ID : 3
Format : AC-3
Format/Info : Audio Coding 3
Mode extension : CM (complete main)
Format settings, Endianness : Big
Codec ID : A_AC3
Duration : 1 h 45 min
Bit rate mode : Constant
Bit rate : 448 kb/s
Channel(s) : 6 channels
Channel positions : Front: L C R, Side: L R, LFE
Sampling rate : 48.0 kHz
Frame rate : 31.250 FPS (1536 spf)
Bit depth : 16 bits
Compression mode : Lossy
Stream size : 338 MiB (2%)
Title : Dub [License]
Language : Russian
Default : No
Forced : No

Audio #3
ID : 4
Format : DTS
Format/Info : Digital Theater Systems
Format profile : ES Matrix / Core
Mode : 16
Format settings, Endianness : Big
Codec ID : A_DTS
Duration : 1 h 45 min
Bit rate mode : Constant
Bit rate : 1 509 kb/s
Channel(s) : 7 channels / 6 channels
Channel positions : Front: L C R, Side: L R, Back: C, LFE / Front: L C R, Side: L R, LFE
Sampling rate : 48.0 kHz
Frame rate : 93.750 FPS (512 spf)
Bit depth : 24 bits
Compression mode : Lossy
Stream size : 1.11 GiB (7%)
Title : Original
Language : English
Default : No
Forced : No

Text #1
ID : 5
Format : UTF-8
Codec ID : S_TEXT/UTF8
Codec ID/Info : UTF-8 Plain Text
Duration : 1 h 44 min
Bit rate : 1 b/s
Count of elements : 20
Stream size : 1.11 KiB (0%)
Title : Forced [iTunes]
Language : Russian
Default : Yes
Forced : No

Text #2
ID : 6
Format : UTF-8
Codec ID : S_TEXT/UTF8
Codec ID/Info : UTF-8 Plain Text
Duration : 1 h 44 min
Bit rate : 131 b/s
Count of elements : 2007
Stream size : 100 KiB (0%)
Title : Full [iTunes]
Language : Russian
Default : No
Forced : No

Text #3
ID : 7
Format : UTF-8
Codec ID : S_TEXT/UTF8
Codec ID/Info : UTF-8 Plain Text
Duration : 1 h 36 min
Bit rate : 92 b/s
Count of elements : 1863
Stream size : 65.2 KiB (0%)
Title : Full [iTunes]
Language : English
Default : No
Forced : No

Menu
00:00:00.000 : en:00:00:00.000
00:03:43.473 : en:00:03:43.473
00:06:41.651 : en:00:06:41.651
00:09:55.845 : en:00:09:55.845
00:13:28.182 : en:00:13:28.182
00:17:06.025 : en:00:17:06.025
00:21:07.933 : en:00:21:07.933
00:26:02.311 : en:00:26:02.311
00:30:07.514 : en:00:30:07.514
00:33:56.743 : en:00:33:56.743
00:37:43.761 : en:00:37:43.761
00:40:59.457 : en:00:40:59.457
00:45:35.149 : en:00:45:35.149
00:49:00.312 : en:00:49:00.312
00:52:35.152 : en:00:52:35.152
00:55:59.189 : en:00:55:59.189
01:00:50.230 : en:01:00:50.230
01:04:33.244 : en:01:04:33.244
01:08:47.665 : en:01:08:47.665
01:12:04.654 : en:01:12:04.654
01:15:58.554 : en:01:15:58.554
01:19:31.809 : en:01:19:31.809
01:22:46.545 : en:01:22:46.545
01:25:43.972 : en:01:25:43.972
01:29:02.295 : en:01:29:02.295
01:31:44.874 : en:01:31:44.874
01:34:18.528 : en:01:34:18.528
01:37:32.680 : en:01:37:32.680



_________________
Проголосуй за трекер Открытый торрент трекер - RUS-MEDIA.ORG

Проголосуй Открытый торрент трекер - RUS-MEDIA.ORG



реклама партнёра


Вернуться к началу
 Профиль Отправить личное сообщение  
 
   Похожие торренты   Автор   Торрент   Размер 
В этой теме нет новых непрочитанных сообщений. Шпионы по соседству / Keeping Up with the Joneses [Боевик, комедия, 2016] BDRip, Dub+Sub [Лицензия]

salma3

1334 | 376

1.46 ГБ

В этой теме нет новых непрочитанных сообщений. Шпионы по соседству / Keeping Up with the Joneses [Боевик, комедия, 2016] BDRip, Dub+Sub [Лицензия]

salma3

530 | 149

2.18 ГБ

В этой теме нет новых непрочитанных сообщений. Шпионы по соседству / Keeping Up with the Joneses [Боевик, комедия, 2016] BDRemux 1080p, Dub+Sub [Лицензия]

salma3

71 | 96

24.24 ГБ

В этой теме нет новых непрочитанных сообщений. Шпионы по соседству / Keeping Up with the Joneses [боевик, комедия, 2016] BDRip 720p, Dub+Sub [Лицензия]

salma3

805 | 114

6.86 ГБ

В этой теме нет новых непрочитанных сообщений. Шпионы по соседству / Keeping Up with the Joneses [Боевик, комедия, 2016] HDRip, Dub+Sub [Лицензия]

salma3

240 | 126

745.87 МБ

В этой теме нет новых непрочитанных сообщений. Шпионы по соседству / Keeping Up with the Joneses ( Боевик, комедия, 2016) BDRemux 1080p от ExKinoRay | iTunes

marya111

134 | 69

23.63 ГБ

В этой теме нет новых непрочитанных сообщений. Шпионы по соседству / Keeping Up with the Joneses (Боевик, комедия, 2016) WEB-DLRip | iPad

marya111

369 | 19

1.91 ГБ


СообщениеДобавлено: 08 янв 2017, 15:53 

В сети
Супермодератор
Аватара пользователя
Дата регистрации:
15 фев 2012, 16:44
Возраст: 28
Спасибо: 6405 / 2128
Сообщения: 37905
salma3 писал(а):
Re: Шпионы по соседству / Keeping Up with the Joneses [боевик, комедия, 2016] BDRip 1080p, Dub [iTunes]

_________________
Проголосуй за трекер Открытый торрент трекер - RUS-MEDIA.ORG

Проголосуй Открытый торрент трекер - RUS-MEDIA.ORG


Вернуться к началу
 Профиль Отправить личное сообщение  
 

СообщениеДобавлено: 10 мар 2017, 21:39 

В сети
Супермодератор
Аватара пользователя
Дата регистрации:
15 фев 2012, 16:44
Возраст: 28
Спасибо: 6405 / 2128
Сообщения: 37905
salma3 писал(а):
Re: Шпионы по соседству / Keeping Up with the Joneses [боевик, комедия, 2016] BDRip 1080p, Dub+Sub [Лицензия]

_________________
Проголосуй за трекер Открытый торрент трекер - RUS-MEDIA.ORG

Проголосуй Открытый торрент трекер - RUS-MEDIA.ORG


Вернуться к началу
 Профиль Отправить личное сообщение  
 
Начать новую тему Ответить на тему  [ Сообщений: 3 ] 




Для Мосгорсуда, Роскомнадзора и рекламодателей:: mosgorsud-torrent[собачка]yandex.ru