Торрент файл
скачать торрент магнет ссылка Добавлен: 01 ноя 2014, 22:11
Размер: 17.84 ГБ
Сидеров: 35
Личеров: 9
Автор

СообщениеДобавлено: 01 ноя 2014, 22:11 

Не в сети
Зам. Админа
Аватара пользователя
Дата регистрации:
02 дек 2010, 12:39
Спасибо: 12577 / 214
Сообщения: 28057
[font=Georgia]
Сан Басе: География вселенной
San Base: Geography of the Universe



Год выпуска: 2014
Жанр: Релакс, Музыка
Продолжительность: ~1:38:57

Перевод: Не требуется



Автор проекта: Сан Басе / San Base



Описание: Продолжение творческого пути Сан Басе в области Динамической живописи.



Предыдущий альбом San Base в 3Д тут - http://rutor.org/torrent/317800/3d-shedevry-san-base-funkcija-realnosti_3d-masterpieces-san-base-%E2%80%93-function-of-reality-2013-bdrip-1080p-3d-video-halfou
Официальный сайт San Base: http://sanbase.com/
Внимание: Высокий битрейт! У некоторых может вызвать проблемы при воспроизведении.
Доп. инфо: Аудио дороги как на БД, без перекодирования.



Файлы в раздаче (продолжительность, битрейт видео) музыка:
1. Our World is a Crazy Fractal (6:50, 23.0 Mbps) Roman Surzha
2. Geometry of Numbers (18:17, 29.8 Mbps) Ugo Altamore
3. Geography of the Universe (24:48, 21.8 Mbps) Kostya Eqvaro
4. Beyond Space (15:44, 25.2 Mbps) Theta Realms
5. Waterscape (14:43, 23.4 Mbps) Kostya Eqvaro
6. Natural Algorithms (18:35, 24.4 Mbps) Kostya Eqvaro






Качество: BDRip (by Ash61)
Контейнер: MKV
Формат 3D: Half OverUnder / Вертикальная анаморфная стереопара
Порядок ракурсов: левый ракурс первый
Видео кодек: x264
Аудио кодек: AC3



Видео: AVC / 23,976 fps / 1920х1080p / 21,8 ... 29,8 Mbps
Аудио: Инструментал / AC3 / 48 KHz / 5.1 ch / 448 Kbps (Original - BD 3D)
Субтитры: Отсутствуют

General
Unique ID : 183538959999646719946258676058894103978 (0x8A1451620EED6AFA915608697B2FF5AA)
Complete name : E:SanBase-GeographyOfTheUniverse(2014)3D-halfOU(Ash61)SanBase-GeographyOfTheUniverse-3.GeographyOfTheUniverse(2014)3D-halfOU(Ash61).mkv
Format : Matroska
Format version : Version 2
File size : 3.92 GiB
Duration : 24mn 47s
Overall bit rate : 22.7 Mbps
Movie name : San Base - Geography of the Universe - 3. Geography of the Universe (2014) 3D
Encoded date : UTC 2014-11-01 10:25:09
Writing application : mkvmerge v5.8.0 ('No Sleep / Pillow') built on Sep 2 2012 15:37:04
Writing library : libebml v1.2.3 + libmatroska v1.3.0

Video
ID : 1
Format : AVC
Format/Info : Advanced Video Codec
Format profile : High@L4.1
Format settings, CABAC : Yes
Format settings, ReFrames : 4 frames
Codec ID : V_MPEG4/ISO/AVC
Duration : 24mn 47s
Bit rate : 21.8 Mbps
Width : 1 920 pixels
Height : 1 080 pixels
Display aspect ratio : 16:9
Frame rate mode : Constant
Frame rate : 23.976 fps
Color space : YUV
Chroma subsampling : 4:2:0
Bit depth : 8 bits
Scan type : Progressive
Bits/(Pixel*Frame) : 0.438
Stream size : 3.77 GiB (96%)
Title : BDRip by Ash61
Writing library : x264 core 138 r2358 9e941d1
Encoding settings : cabac=1 / ref=4 / deblock=1:-1:-1 / analyse=0x3:0x113 / me=umh / subme=10 / psy=1 / psy_rd=1.00:0.15 / mixed_ref=1 / me_range=32 / chroma_me=1 / trellis=2 / 8x8dct=1 / cqm=0 / deadzone=21,11 / fast_pskip=1 / chroma_qp_offset=-3 / threads=12 / lookahead_threads=2 / sliced_threads=0 / nr=0 / decimate=1 / interlaced=0 / bluray_compat=0 / constrained_intra=0 / bframes=7 / b_pyramid=2 / b_adapt=2 / b_bias=0 / direct=3 / weightb=1 / open_gop=0 / weightp=2 / keyint=250 / keyint_min=23 / scenecut=40 / intra_refresh=0 / rc_lookahead=60 / rc=crf / mbtree=1 / crf=22.0 / qcomp=0.70 / qpmin=10 / qpmax=69 / qpstep=4 / vbv_maxrate=40000 / vbv_bufsize=30000 / crf_max=0.0 / nal_hrd=none / frame-packing=4 / ip_ratio=1.40 / aq=1:1.00
Language : English
Default : Yes
Forced : No

Audio
ID : 2
Format : AC-3
Format/Info : Audio Coding 3
Mode extension : CM (complete main)
Format settings, Endianness : Big
Codec ID : A_AC3
Duration : 24mn 47s
Bit rate mode : Constant
Bit rate : 448 Kbps
Channel(s) : 6 channels
Channel positions : Front: L C R, Side: L R, LFE
Sampling rate : 48.0 KHz
Bit depth : 16 bits
Compression mode : Lossy
Stream size : 79.5 MiB (2%)
Title : Original - BD 3D
Default : Yes
Forced : No
[/img]






San Base - канадский художник , родившийся в России. С раннего детства он проявлял склонность к искусству, и в возрасте 12 лет он был принят в Школу Изящных искусств. Вскоре после этого, он обнаружил еще одно своё увлечение - математику. Как поклонник и искусства, и науки, он столкнулся с трудной дилемой - принять предложение Суриковской Академии Изящных искусств (одна из самых известных художественных школ в России) или пойти в технический университет. В конце концов, он выбрал путь в прикладную науку, чтобы получить высшее образование как инженер-кибернетик, но он никогда не отказывался от живописи.
Он переехал в Украину и преуспел в качестве программиста. Между тем, San Base посвятил все свое свободное время живописи и совершенствованию своего мастерства художника. В начале 90-х , Base изобрел концепцию Динамической живописи путем объединения двух своих сильных сторон - навыков программирования и любви к искусству.
Он иммигрировал в Канаду в середине 90-х годов и в течение последнего десятилетия совершенствовал технологии в области Динамической живописи. Теперь, блестящие результаты его гениальной работы могут, наконец, быть увиденными в галереях по всему миру и на 3D Blu-ray.

Программист San Base (Александр Басе), выпускник ИжГТУ ( Ижевск ), ныне проживающий в Канаде. San Base – человек, которому удалось соединить профессию программиста и талант художника в новом виде искусства – динамической живописи, аналогов которой в мире пока нет.
Этот вид живописи находится на стыке изобразительного искусства и компьютерных технологий. Динамическая живопись - это новый пример процедурального искусства, генерируемого компьютерной системой.Представьте картину, висящую на стене. На первый взгляд, это обычная картина в рамке. Необычно в ней то, что изображение все время меняется. Объекты плавно трансформируются, меняются цвета и фактуры поверхностей. Изображение НИКОГДА (!!!) не повторяется. На такую картину можно смотреть часами, причем каждый человек будет видеть что-то свое. Картина вызывает у зрителя ассоциации, а затем уже сам зритель домысливает сюжет сообразно своему настроению и воображению. Звучит как научная фантастика, но это уже реальность.




реклама партнёра


Вернуться к началу
 Профиль  
 
   Похожие торренты   Автор   Торрент   Размер 
В этой теме нет новых непрочитанных сообщений. Лунный свет 3: Дни вечности / Lichtmond 3: Days of Eternity [музыка, релакс, 2014] BDRip 1080p [3D-Video]

Dracon

124 | 18

7.66 ГБ

В этой теме нет новых непрочитанных сообщений. Повелители вселенной / Властелины вселенной / Masters of the Universe [фантастика, фэнтези, боевик, триллер, приключения, 1987] BDRip 1080p, Mvo

salma3

3 | 2

11.93 ГБ

В этой теме нет новых непрочитанных сообщений. Шаг вперёд: Всё или ничего / Step Up All In [драма, мелодрама, музыка, 2014] BDRip 1080p, Dub [iTunes | 3D-Video]

Dracon

371 | 47

13.84 ГБ

В этой теме нет новых непрочитанных сообщений. Тайны Вселенной. Немезида - Злобный спутник Солнца / The Universe. Nemesis - The Sun's Evil Twin (Джон Томсон) [2011, документальный, BDRip-AVC (1080р)] VO

salma3

1 | 1

756.61 МБ

В этой теме нет новых непрочитанных сообщений. National Geographic: Путешествие на край Вселенной / National Geographic: Journey to the Edge of the Universe (Явар Аббас) [2008, документальный, космос, BDRip] DUB

salma3

6 | 1

1.46 ГБ

В этой теме нет новых непрочитанных сообщений. BBC: Горизонт. Большая часть Вселенной невидима / BBC. Horizon. Most of our Universe is Missing (Грехам Стронг) [2006, документальный, SATRip] VO

salma3

2 | 1

445.28 МБ

В этой теме нет новых непрочитанных сообщений. Океан мечты: Наслаждение красотой моря / Ocean Dreams: Enjoy the Powerful Beauty of the Sea (Сэм Уивер) [2013, Документальный, видовой, музыка, релакс, BDRip 720p]

Nickolas3435

168 | 13

3.6 ГБ


Начать новую тему Ответить на тему  [ 1 сообщение ] 




Для Мосгорсуда, Роскомнадзора и рекламодателей:: mosgorsud-torrent[собачка]yandex.ru