Торрент файл
скачать торрент магнет ссылка Добавлен: 13 янв 2014, 16:54
Размер: 12.53 ГБ
Сидеров: 70
Личеров: 177
Статус: (Dracon)
Автор

СообщениеДобавлено: 13 янв 2014, 16:54 

Не в сети
Зам. Админа
Аватара пользователя
Дата регистрации:
02 дек 2010, 12:39
Спасибо: 12508 / 214
Сообщения: 28046
Год выхода: 2013
Жанр: мюзикл, музыка, приключения
Режиссер: Нимрод Антал
В ролях: Дэйн ДеХаан, Джеймс Хетфилд, Ларс Ульрих, Кирк Хеммет, Роберт Трухильо, Кайл Томсон,
Тоби Харгрейв, МакКензи Грэй, Питер Брайант, Хротгар Мэтьюз и др.
О фильме:
Участник технической команды группы Metallica получает задание — привезти сумку, содержимое которой необходимо группе для выступления.
Сопровождая таинственную сумку, он попадает в невероятные передряги!
Картина представляет собой смесь игрового фильма и концерта.



Страна: США
Продолжительность: 01:32:44
Перевод: Оригинал (на немногочисленные
диалоги перевод отсутствует)
Качество: MKV, BDRip 1080p | 3D-Video |
Формат 3D: Вертикальная анаморфная стереопара
Видео: V_MPEG4/AVC, 1920x1080 (16:9), ~ 15500 Kbps, 23.976 fps
Звук: Аудио 1: English AC3 5.1, 48 kHz, 448 kbps, 16-bit
Аудио 2: English DTS 5.1, ~ 1509 kbps, 48 kHz, 24-bit
Аудио 3: English DTS 2.0, ~ 1509 kbps, 48 kHz, 24-bit
Сэмпл: Скачать


General
Unique ID : 189626151237981373589195922414155064265
(0x8EA8AB151B527FF089B20077C873E3C9)
Complete name : Metallica.Through.The.Never.3D.2013.1080p.mkv
Format : Matroska
Format version : Version 2
File size : 12.5 GiB
Duration : 1h 32mn
Overall bit rate : 19.3 Mbps
Movie name : Metallica.Through.The.Never.3D.2013.1080p V_ATAKy http://www.rutor.org
Encoded date : UTC 2014-01-13 12:53:50
Writing application : mkvmerge v5.5.0 ('Healer') built on Apr 9 2012 13:24:38
Writing library : libebml v1.2.3 + libmatroska v1.3.0

Video
ID : 1
Format : AVC
Format/Info : Advanced Video Codec
Format profile : High@L4.1
Format settings, CABAC : Yes
Format settings, ReFrames : 2 frames
Muxing mode : Header stripping
Codec ID : V_MPEG4/ISO/AVC
Duration : 1h 32mn
Bit rate : 15.5 Mbps
Width : 1 920 pixels
Height : 1 080 pixels
Display aspect ratio : 16:9
Frame rate mode : Constant
Frame rate : 23.976 fps
Color space : YUV
Chroma subsampling : 4:2:0
Bit depth : 8 bits
Scan type : Progressive
Bits/(Pixel*Frame) : 0.311
Stream size : 10.0 GiB (80%)
Title : Metallica.Through.The.Never.3D.2013.1080p V_ATAKy
Writing library : x264 core
Language : English
Default : Yes
Forced : No
Color primaries : BT.709
Transfer characteristics : BT.709
Matrix coefficients : BT.709

Audio #1
ID : 2
Format : AC-3
Format/Info : Audio Coding 3
Mode extension : CM (complete main)
Format settings, Endianness : Big
Muxing mode : Header stripping
Codec ID : A_AC3
Duration : 1h 32mn
Bit rate mode : Constant
Bit rate : 448 Kbps
Channel(s) : 6 channels
Channel positions : Front: L C R, Side: L R, LFE
Sampling rate : 48.0 KHz
Bit depth : 16 bits
Compression mode : Lossy
Stream size : 297 MiB (2%)
Title : AC3 5.1 V_ATAKy
Language : English
Default : Yes
Forced : No

Audio #2
ID : 3
Format : DTS
Format/Info : Digital Theater Systems
Mode : 16
Format settings, Endianness : Big
Muxing mode : Header stripping
Codec ID : A_DTS
Duration : 1h 32mn
Bit rate mode : Constant
Bit rate : 1 509 Kbps
Channel(s) : 6 channels
Channel positions : Front: L C R, Side: L R, LFE
Sampling rate : 48.0 KHz
Bit depth : 24 bits
Compression mode : Lossy
Stream size : 1 001 MiB (8%)
Title : DTS 5.1 Ch
Language : English
Default : No
Forced : No

Audio #3
ID : 4
Format : DTS
Format/Info : Digital Theater Systems
Mode : 16
Format settings, Endianness : Big
Muxing mode : Header stripping
Codec ID : A_DTS
Duration : 1h 32mn
Bit rate mode : Constant
Bit rate : 1 509 Kbps
Channel(s) : 2 channels
Channel positions : Front: L R
Sampling rate : 48.0 KHz
Bit depth : 24 bits
Compression mode : Lossy
Stream size : 1 001 MiB (8%)
Title : DTS 2.0 Ch
Language : English
Default : No
Forced : No

Menu
00:00:00.000 : en:00:00:00.000
00:03:48.228 : en:00:03:48.228
00:05:17.317 : en:00:05:17.317
00:10:56.155 : en:00:10:56.155
00:15:01.359 : en:00:15:01.359
00:19:34.965 : en:00:19:34.965
00:25:41.498 : en:00:25:41.498
00:34:43.957 : en:00:34:43.957
00:39:51.931 : en:00:39:51.931
00:41:25.274 : en:00:41:25.274
00:47:09.076 : en:00:47:09.076
00:55:25.697 : en:00:55:25.697
01:03:46.239 : en:01:03:46.239
01:07:02.060 : en:01:07:02.060
01:12:45.486 : en:01:12:45.486
01:19:27.429 : en:01:19:27.429
01:24:26.937 : en:01:24:26.937




реклама партнёра


Вернуться к началу
 Профиль  
 
   Похожие торренты   Автор   Торрент   Размер 
В этой теме нет новых непрочитанных сообщений. Metallica: Сквозь невозможное / Metallica: Through the Never [мюзикл, музыка, приключения, 2013] BDRip 720p, Mvo+Sub

Dracon

303 | 30

7.34 ГБ

В этой теме нет новых непрочитанных сообщений. Metallica - Through The Never (2 CD) [2013, Thrash Metal, MP3]

PriZraK

20 | 6

231.56 МБ

В этой теме нет новых непрочитанных сообщений. VA - Metallica A Tribute To Kill 'Em All (MAG) [2013, Thrash Metal, MP3]

PriZraK

15 | 4

106.11 МБ

В этой теме нет новых непрочитанных сообщений. Metallica - Freeze 'Em All: Live in Antarctica [2013, Thrash Metal, MP3]

PriZraK

19 | 7

170.94 МБ

В этой теме нет новых непрочитанных сообщений. Metallica - Bellville Velodrome, Cape Town, RSA [2013, Thrash Metal, MP3]

PriZraK

3 | 4

297.46 МБ

В этой теме нет новых непрочитанных сообщений. Мистер Гоу / Mr. Go [Комедия, приключения, 2013] BDRip 1080p, avo [3D-Video]

Dracon

4 | 5

13.03 ГБ

В этой теме нет новых непрочитанных сообщений. Беги / Run [Фэнтези,Боевик,Приключения, 2013] BDRip 1080p, Dub [3D-Video]

Dracon

98 | 12

10.08 ГБ


Начать новую тему Ответить на тему  [ 1 сообщение ] 




Для Мосгорсуда, Роскомнадзора и рекламодателей:: mosgorsud-torrent[собачка]yandex.ru