Торрент файл
скачать торрент магнет ссылка Добавлен: 07 окт 2012, 21:32
Размер: 99.28 МБ
Сидеров: 118
Личеров: 10
Автор

СообщениеДобавлено: 07 окт 2012, 21:32 

Не в сети
Аватара пользователя
Дата регистрации:
28 ноя 2010, 22:22
Спасибо: 704 / 5
Сообщения: 2031
Шрек Навсегда / Shrek Forever After / 3D
Тип раздаваемого материала: трейлер
Год выпуска фильма: 2010
Страна: США
Жанр: Анимация, семейный
Продолжительность: 00:01:13
Перевод: НЕТ (На Английском)
Русские субтитры: нет
Режиссер: Майк Митчел
В ролях: Майк Майерс, Эдди Мерфи, Кэмерон Диаз, Антонио Бандерас, Коуди Кэмерон, Эрик Айдл, Ларри Кинг, Кристофер Найтс, Пол МакКартни, Крэйг Робинсон, Конрад Вернон, Арон Уорнер
Описание: Чем бы еще заняться огру, который уже сразился со злым драконом, спас прекрасную принцессу и уберег от беды королевство родственников по линии жены? Что ж, если вы Шрэк, то, сами того не заметив, вы вдруг сядете дома и станете наслаждаться покоем в кругу семьи. Вместо того чтобы как раньше пугать деревенских жителей, теперь Шрэк, хоть и с неохотой, но соглашается оставлять автографы на их вилах. А куда же подевался знаменитый рык этого огра?
Под грузом воспоминаний о днях, когда он чувствовал себя «настоящим огром», Шрэк поддается на уговоры сладкоголосого Румпельштильцхена и заключает с ним договор. Сразу после этого Шрэк оказывается в альтернативной реальности Тридевятого королевства, где все поставлено с ног на голову: на огров здесь охотятся, Румпельштильцхен восседает на троне, а Шрэк и Фиона даже не знакомы. И теперь только сам Шрэк может исправить все, что он натворил, чтобы спасти друзей, восстановить привычный ему порядок вещей и вернуть себе свою единственную Истинную Любовь.
Уже в который раз нам наши Китайские друзья преподносят нововведение: 3D - Горизонтальная СТЕРЕО-Пара. Самое настоящее 3D а не какой-то Анаглиф. Смотрим и наслаждаемся классными эфектами!
Качество: BDRip
Формат видео: AVI
Видео кодек: Xvid
Аудио кодек: MP3
Видео: Xvid 1920x1080 24.00fps 11171Kbps
Аудио: MPEG Audio Layer 3 44100Hz stereo 120Kbps
Формат 3d: SideBySide
Порядок ракурсов: Параллельная пара
Media-info:
General
Complete name : Shrek Forever After.3D.Trailer.1080P.avi
Format : AVI
Format/Info : Audio Video Interleave
File size : 99.3 MiB
Duration : 1mn 13s
Overall bit rate : 11.3 Mbps
Writing application : MEncoder Sherpya-SVN-r30075-4.2.5
Writing library : MPlayer
Video
Format : MPEG-4 Visual
Format profile : Simple@L3
Format settings, BVOP : No
Format settings, QPel : No
Format settings, GMC : No warppoints
Format settings, Matrix : Default
Codec ID : XVID
Codec ID/Hint : XviD
Duration : 1mn 13s
Bit rate : 11.2 Mbps
Width : 1 920 pixels
Height : 1 080 pixels
Display aspect ratio : 16/9
Frame rate : 24.000 fps
Resolution : 24 bits
Colorimetry : 4:2:0
Scan type : Progressive
Bits/(Pixel*Frame) : 0.224
Stream size : 98.1 MiB (99%)
Writing library : XviD 50
Audio
Format : MPEG Audio
Format version : Version 1
Format profile : Layer 3
Codec ID : 55
Codec ID/Hint : MP3
Duration : 1mn 13s
Bit rate mode : Constant
Bit rate : 32.0 Kbps
Channel(s) : 2 channels
Sampling rate : 44.1 KHz
Resolution : 16 bits
Stream size : 1.06 MiB (1%)
Alignment : Aligned on interleaves
Interleave, duration : 26 ms (0.63 video frame)
Interleave, preload duration : 520 ms
Writing library : LAME3.98.2
Скриншоты




реклама партнёра


Вернуться к началу
 Профиль Отправить личное сообщение  
 
   Похожие торренты   Автор   Торрент   Размер 
В этой теме нет новых непрочитанных сообщений. Нина навсегда / Nina Forever [ужасы, мелодрама, комедия, 2015] BDRip 1080p, Dub [чистый звук]

salma3

214 | 68

8.24 ГБ

В этой теме нет новых непрочитанных сообщений. Драконы навсегда / Dragons Forever / Fei lung mang jeung [комедия, боевые искусства, 1988] BDRip 1080p, 2Mvo+2Avo

salma3

17 | 7

9.1 ГБ

В этой теме нет новых непрочитанных сообщений. Тайны и ложь / Secrets & Lies (Майк Ли / Mike Leigh) [1996г., Франция, драма, BDRip-AVC] MVO

Alfredovich

11 | 5

3.2 ГБ

В этой теме нет новых непрочитанных сообщений. Супер Майк XXL / Magic Mike XXL (Грегори Джейкобс) [комедия, музыка, драма, 2015] BDRip-AVC, Dub+Sub [BD CEE]

Dracon

631 | 54

2.18 ГБ

В этой теме нет новых непрочитанных сообщений. Навсегда / Forever [Триллер, драма, 2015] WEBDLRip, Mvo

salma3

109 | 33

1.37 ГБ

В этой теме нет новых непрочитанных сообщений. Супер Майк XXL / Magic Mike XXL (Грегори Джейкобс) [комедия, музыка, драма, 2015] BDRip 1080p, Dub+Sub [Blu-ray EUR]

Dracon

141 | 26

13.5 ГБ

В этой теме нет новых непрочитанных сообщений. Супер Майк XXL / Magic Mike XXL (Грегори Джейкобс) [комедия, музыка, драма, 2015] BDRip 720p, Dub+Sub [Blu-ray EUR]

Dracon

148 | 3

5.88 ГБ


Начать новую тему Ответить на тему  [ 1 сообщение ] 




Для Мосгорсуда, Роскомнадзора и рекламодателей:: mosgorsud-torrent[собачка]yandex.ru