Торрент файл
скачать торрент магнет ссылка Добавлен: 07 окт 2012, 21:32
Размер: 42.7 ГБ
Сидеров: 13
Личеров: 7
Автор

СообщениеДобавлено: 07 окт 2012, 21:32 

Не в сети
Аватара пользователя
Дата регистрации:
28 ноя 2010, 22:22
Спасибо: 707 / 5
Сообщения: 2031
Scorpions: Live - Get Your Sting & Blackout
Год выпуска: 2011
Выпущено: Sony Music
Жанр: Rock
Продолжительность: 01:53:59
Описание: German hard rock veterans SCORPIONS will release "Get Your Sting & Blackout - Live In 3D" on Blu-ray on December 6 via Sony. The disc contains a recording of the band's April 15, 2011 concert in Saarbrucken, Germany using the latest 3D technology, 11 cameras, awesome 5.1.
Треклист:
01. Intro
02. Sting In The Tail
03. Make It Real
04. Bad Boys Running Wild
05. The Zoo
06. Coast To Coast
07. Loving You Sunday Morning
08. The Best Is Yet To Come
09. Send Me An Angel
10. Holiday
11. Raised On Rock
12. Tease Me Please Me
13. Dynamite
14. Kottak Attack
15. Blackout
16. Six String Sting
17. Big City Nights
18. Still Loving You
19. Wind Of Change
20. Rock You Like A Hurricane
21. When The Smoke Is Going Down
Бонус:
Behind-the-scenes
Эксклюзив от: by serin
Качество: Blu-ray 3D
Контейнер: ISO
Видео кодек: MVC
Аудио кодек: DTS, PCM
Видео: 1920x1080p, MPEG-4 AVC, 23,976 fps, ~22306 Kbps
Аудио №1: English DTS-HD MA 5.1 (48 kHz / 5149 kbps / 24-bit)
Аудио №2: English LPCM 2.0 (48 kHz / 2304 kbps / 24-bit)
BDInfo
Код:
Disc Title:Scorpions - Live in 3D
Disc Size:45 841 618 840 bytes
Protection:AACS
BD-Java:No
Extras:Blu-ray 3D
BDInfo:0.5.6
Notes:
BDINFO HOME:
Cinema Squid
[url=http://www.cinemasquid.com/blu-ray/tools/bdinfo]http://www.cinemasquid.com/blu-ray/tools/bdinfo[/url]
INCLUDES FORUMS REPORT FOR:
AVS Forum Blu-ray Audio and Video Specifications Thread
[url=http://www.avsforum.com/avs-vb/showthread.php?t=1155731]http://www.avsforum.com/avs-vb/showthread.php?t=1155731[/url]
********************
PLAYLIST: 00003.MPLS
********************
<--- BEGIN FORUMS PASTE --->
Код:
Код:
Total   Video
Title                                                           Codec   Length  Movie Size      Disc Size       Bitrate Bitrate Main Audio Track                          Secondary Audio Track
-----                                                           ------  ------- --------------  --------------  ------- ------- ------------------                        ---------------------
00003.MPLS                                                      AVC     1:53:59 26 905 153 536  45 841 618 840  31,47   22,31   DTS-HD Master 5.1 5149Kbps (48kHz/24-bit) LPCM 2.0 2304Kbps (48kHz/24-bit)

Код:
Код:
DISC INFO:
Disc Title:     Scorpions - Live in 3D
Disc Size:      45 841 618 840 bytes
Protection:     AACS
BD-Java:        No
Extras:         Blu-ray 3D
BDInfo:         0.5.6
PLAYLIST REPORT:
Name:                   00003.MPLS
Length:                 1:53:59 (h:m:s)
Size:                   26 905 153 536 bytes
Total Bitrate:          31,47 Mbps
VIDEO:
Codec                   Bitrate             Description
-----                   -------             -----------
MPEG-4 AVC Video        22306 kbps          1080p / 23,976 fps / 16:9 / High Profile 4.1
AUDIO:
Codec                           Language        Bitrate         Description
-----                           --------        -------         -----------
DTS-HD Master Audio             English         5149 kbps       5.1 / 48 kHz / 5149 kbps / 24-bit (DTS Core: 5.1 / 48 kHz / 1509 kbps / 24-bit)
LPCM Audio                      English         2304 kbps       2.0 / 48 kHz / 2304 kbps / 24-bit
SUBTITLES:
Codec                           Language        Bitrate         Description
-----                           --------        -------         -----------
Presentation Graphics           English         0,955 kbps
FILES:
Name            Time In         Length          Size            Total Bitrate
----            -------         ------          ----            -------------
00005.M2TS      0:00:00.000     1:53:59.833     26 905 153 536  31 469
CHAPTERS:
Number          Time In         Length          Avg Video Rate  Max 1-Sec Rate  Max 1-Sec Time  Max 5-Sec Rate  Max 5-Sec Time  Max 10Sec Rate  Max 10Sec Time  Avg Frame Size  Max Frame Size  Max Frame Time
------          -------         ------          --------------  --------------  --------------  --------------  --------------  --------------  --------------  --------------  --------------  --------------
1               0:00:00.000     1:53:59.833     22 306 kbps     44 786 kbps     00:17:53.363    34 136 kbps     01:05:09.113    30 377 kbps     00:48:30.407    116 294 bytes   576 621 bytes   01:52:43.757
STREAM DIAGNOSTICS:
File            PID             Type            Codec           Language                Seconds                 Bitrate                 Bytes           Packets
----            ---             ----            -----           --------                --------------          --------------          -------------   -----
00005.M2TS      4113 (0x1011)   0x1B            AVC                                     6839,750                22 306                  19 071 303 803  103 744 668
00005.M2TS      4352 (0x1100)   0x86            DTS-HD MA       eng (English)           6839,750                5 149                   4 402 231 840   24 991 325
00005.M2TS      4353 (0x1101)   0x80            LPCM            eng (English)           6839,750                2 310                   1 975 344 164   10 943 742
00005.M2TS      4608 (0x1200)   0x90            PGS             eng (English)           6839,750                1                       816 411         4 557

Код:
<---- END FORUMS PASTE ---->
QUICK SUMMARY:
Disc Title: Scorpions - Live in 3D
Disc Size: 45 841 618 840 bytes
Protection: AACS
BD-Java: No
Playlist: 00003.MPLS
Size: 26 905 153 536 bytes
Length: 1:53:59
Total Bitrate: 31,47 Mbps
Video: MPEG-4 AVC Video / 22306 kbps / 1080p / 23,976 fps / 16:9 / High Profile 4.1
Audio: English / DTS-HD Master Audio / 5.1 / 48 kHz / 5149 kbps / 24-bit (DTS Core: 5.1 / 48 kHz / 1509 kbps / 24-bit)
Audio: English / LPCM Audio / 2.0 / 48 kHz / 2304 kbps / 24-bit
Subtitle: English / 0,955 kbps
********************
PLAYLIST: 01003.MPLS
********************
<--- BEGIN FORUMS PASTE --->
Код:
Код:
Total   Video
Title                                                           Codec   Length  Movie Size      Disc Size       Bitrate Bitrate Main Audio Track                          Secondary Audio Track
-----                                                           ------  ------- --------------  --------------  ------- ------- ------------------                        ---------------------
01003.MPLS                                                      AVC     1:53:59 26 905 153 536  45 841 618 840  31,47   22,31   DTS-HD Master 5.1 5149Kbps (48kHz/24-bit) LPCM 2.0 2304Kbps (48kHz/24-bit)

Код:
Код:
DISC INFO:
Disc Title:     Scorpions - Live in 3D
Disc Size:      45 841 618 840 bytes
Protection:     AACS
BD-Java:        No
Extras:         Blu-ray 3D
BDInfo:         0.5.6
PLAYLIST REPORT:
Name:                   01003.MPLS
Length:                 1:53:59 (h:m:s)
Size:                   26 905 153 536 bytes
Total Bitrate:          31,47 Mbps
VIDEO:
Codec                   Bitrate             Description
-----                   -------             -----------
MPEG-4 AVC Video        22306 kbps          1080p / 23,976 fps / 16:9 / High Profile 4.1
AUDIO:
Codec                           Language        Bitrate         Description
-----                           --------        -------         -----------
DTS-HD Master Audio             English         5149 kbps       5.1 / 48 kHz / 5149 kbps / 24-bit (DTS Core: 5.1 / 48 kHz / 1509 kbps / 24-bit)
LPCM Audio                      English         2304 kbps       2.0 / 48 kHz / 2304 kbps / 24-bit
SUBTITLES:
Codec                           Language        Bitrate         Description
-----                           --------        -------         -----------
Presentation Graphics           English         0,955 kbps
FILES:
Name            Time In         Length          Size            Total Bitrate
----            -------         ------          ----            -------------
00005.M2TS      0:00:00.000     1:53:59.833     26 905 153 536  31 469
CHAPTERS:
Number          Time In         Length          Avg Video Rate  Max 1-Sec Rate  Max 1-Sec Time  Max 5-Sec Rate  Max 5-Sec Time  Max 10Sec Rate  Max 10Sec Time  Avg Frame Size  Max Frame Size  Max Frame Time
------          -------         ------          --------------  --------------  --------------  --------------  --------------  --------------  --------------  --------------  --------------  --------------
1               0:00:00.000     0:01:48.525     20 920 kbps     39 745 kbps     00:01:09.194    32 937 kbps     00:01:08.651    28 999 kbps     00:01:04.314    109 028 bytes   335 852 bytes   00:01:09.235
2               0:01:48.525     0:03:27.373     24 950 kbps     40 320 kbps     00:02:04.916    30 652 kbps     00:02:01.204    29 304 kbps     00:01:55.865    130 080 bytes   305 446 bytes   00:03:24.120
3               0:05:15.898     0:03:57.070     22 371 kbps     40 276 kbps     00:07:33.327    30 041 kbps     00:07:32.034    26 924 kbps     00:06:19.796    116 630 bytes   328 280 bytes   00:05:35.084
4               0:09:12.969     0:03:56.236     22 301 kbps     38 684 kbps     00:10:10.818    28 913 kbps     00:10:10.318    27 373 kbps     00:12:35.254    116 268 bytes   319 101 bytes   00:10:11.360
5               0:13:09.205     0:05:49.932     23 700 kbps     44 786 kbps     00:17:53.363    31 026 kbps     00:15:36.894    29 693 kbps     00:13:56.794    123 560 bytes   373 321 bytes   00:16:36.996
6               0:18:59.138     0:05:13.730     21 920 kbps     39 604 kbps     00:20:53.835    32 868 kbps     00:20:53.543    28 059 kbps     00:20:48.914    114 278 bytes   411 714 bytes   00:19:18.073
7               0:24:12.868     0:04:47.870     23 668 kbps     38 213 kbps     00:28:15.527    31 920 kbps     00:27:27.270    28 400 kbps     00:25:02.000    123 395 bytes   403 646 bytes   00:27:11.463
8               0:29:00.739     0:07:52.889     22 119 kbps     36 544 kbps     00:29:05.785    32 561 kbps     00:29:04.701    28 740 kbps     00:29:18.214    115 317 bytes   348 569 bytes   00:31:52.827
9               0:36:53.628     0:04:25.848     19 227 kbps     24 701 kbps     00:37:10.686    24 335 kbps     00:37:06.682    23 544 kbps     00:37:01.677    100 243 bytes   202 468 bytes   00:38:23.175
10              0:41:19.477     0:06:51.410     19 232 kbps     33 645 kbps     00:41:53.344    29 376 kbps     00:41:49.381    26 721 kbps     00:47:37.145    100 268 bytes   267 590 bytes   00:41:53.093
11              0:48:10.888     0:04:08.665     24 475 kbps     42 388 kbps     00:50:00.122    32 893 kbps     00:51:03.810    30 377 kbps     00:48:30.407    127 602 bytes   344 682 bytes   00:49:05.192
12              0:52:19.553     0:05:31.331     23 914 kbps     40 733 kbps     00:54:17.671    30 987 kbps     00:57:21.312    29 293 kbps     00:57:16.641    124 675 bytes   361 356 bytes   00:54:52.580
13              0:57:50.884     0:03:51.814     24 866 kbps     42 190 kbps     00:58:00.059    33 311 kbps     00:59:48.960    29 559 kbps     00:59:48.960    129 641 bytes   334 165 bytes   01:00:54.984
14              1:01:42.699     0:07:02.422     21 981 kbps     40 565 kbps     01:08:20.721    34 136 kbps     01:05:09.113    29 802 kbps     01:05:09.113    114 597 bytes   569 860 bytes   01:08:18.594
15              1:08:45.121     0:04:10.250     23 492 kbps     35 172 kbps     01:10:23.510    30 332 kbps     01:12:02.109    27 736 kbps     01:09:39.925    122 476 bytes   282 586 bytes   01:12:10.617
16              1:12:55.371     0:02:58.177     16 803 kbps     28 802 kbps     01:15:42.871    24 214 kbps     01:14:31.675    22 471 kbps     01:14:25.627    87 604 bytes    226 928 bytes   01:14:33.343
17              1:15:53.549     0:09:51.799     23 351 kbps     41 967 kbps     01:16:04.768    32 409 kbps     01:21:19.082    29 081 kbps     01:23:09.484    121 743 bytes   356 917 bytes   01:18:19.903
18              1:25:45.348     0:06:39.607     23 094 kbps     38 216 kbps     01:28:40.982    31 643 kbps     01:25:49.102    29 443 kbps     01:25:49.102    120 401 bytes   397 148 bytes   01:28:54.037
19              1:32:24.956     0:05:25.908     22 608 kbps     37 991 kbps     01:32:45.726    33 422 kbps     01:32:45.184    29 387 kbps     01:32:41.722    117 869 bytes   396 657 bytes   01:32:45.226
20              1:37:50.865     0:08:41.729     22 255 kbps     39 513 kbps     01:40:48.125    30 687 kbps     01:43:56.813    28 460 kbps     01:45:00.502    116 026 bytes   430 196 bytes   01:40:48.167
21              1:46:32.594     0:04:40.363     21 067 kbps     42 093 kbps     01:46:49.945    29 791 kbps     01:46:49.569    28 180 kbps     01:47:18.557    109 833 bytes   355 937 bytes   01:46:50.695
22              1:51:12.957     0:02:46.875     19 308 kbps     33 481 kbps     01:51:51.454    28 897 kbps     01:51:51.371    27 694 kbps     01:51:51.413    100 689 bytes   576 621 bytes   01:52:43.757
STREAM DIAGNOSTICS:
File            PID             Type            Codec           Language                Seconds                 Bitrate                 Bytes           Packets
----            ---             ----            -----           --------                --------------          --------------          -------------   -----
00005.M2TS      4113 (0x1011)   0x1B            AVC                                     6839,750                22 306                  19 071 303 803  103 744 668
00005.M2TS      4352 (0x1100)   0x86            DTS-HD MA       eng (English)           6839,750                5 149                   4 402 231 840   24 991 325
00005.M2TS      4353 (0x1101)   0x80            LPCM            eng (English)           6839,750                2 310                   1 975 344 164   10 943 742
00005.M2TS      4608 (0x1200)   0x90            PGS             eng (English)           6839,750                1                       816 411         4 557

Код:
<---- END FORUMS PASTE ---->
QUICK SUMMARY:
Disc Title: Scorpions - Live in 3D
Disc Size: 45 841 618 840 bytes
Protection: AACS
BD-Java: No
Playlist: 01003.MPLS
Size: 26 905 153 536 bytes
Length: 1:53:59
Total Bitrate: 31,47 Mbps
Video: MPEG-4 AVC Video / 22306 kbps / 1080p / 23,976 fps / 16:9 / High Profile 4.1
Audio: English / DTS-HD Master Audio / 5.1 / 48 kHz / 5149 kbps / 24-bit (DTS Core: 5.1 / 48 kHz / 1509 kbps / 24-bit)
Audio: English / LPCM Audio / 2.0 / 48 kHz / 2304 kbps / 24-bit
Subtitle: English / 0,955 kbps
********************
PLAYLIST: 00004.MPLS
********************
<--- BEGIN FORUMS PASTE --->
Код:
Код:
Total   Video
Title                                                           Codec   Length  Movie Size      Disc Size       Bitrate Bitrate Main Audio Track                          Secondary Audio Track
-----                                                           ------  ------- --------------  --------------  ------- ------- ------------------                        ---------------------
00004.MPLS                                                      AVC     0:33:39 5 775 740 928   45 841 618 840  22,87   19,41   LPCM 2.0 2304Kbps (48kHz/24-bit)

Код:
Код:
DISC INFO:
Disc Title:     Scorpions - Live in 3D
Disc Size:      45 841 618 840 bytes
Protection:     AACS
BD-Java:        No
Extras:         Blu-ray 3D
BDInfo:         0.5.6
PLAYLIST REPORT:
Name:                   00004.MPLS
Length:                 0:33:39 (h:m:s)
Size:                   5 775 740 928 bytes
Total Bitrate:          22,87 Mbps
VIDEO:
Codec                   Bitrate             Description
-----                   -------             -----------
MPEG-4 AVC Video        19413 kbps          1080p / 23,976 fps / 16:9 / High Profile 4.1
AUDIO:
Codec                           Language        Bitrate         Description
-----                           --------        -------         -----------
LPCM Audio                      German          2304 kbps       2.0 / 48 kHz / 2304 kbps / 24-bit
SUBTITLES:
Codec                           Language        Bitrate         Description
-----                           --------        -------         -----------
Presentation Graphics           English         39,018 kbps
Presentation Graphics           German          3,221 kbps
FILES:
Name            Time In         Length          Size            Total Bitrate
----            -------         ------          ----            -------------
00007.M2TS      0:00:00.000     0:33:39.976     5 775 740 928   22 874
CHAPTERS:
Number          Time In         Length          Avg Video Rate  Max 1-Sec Rate  Max 1-Sec Time  Max 5-Sec Rate  Max 5-Sec Time  Max 10Sec Rate  Max 10Sec Time  Avg Frame Size  Max Frame Size  Max Frame Time
------          -------         ------          --------------  --------------  --------------  --------------  --------------  --------------  --------------  --------------  --------------  --------------
1               0:00:00.000     0:33:39.976     19 413 kbps     40 165 kbps     00:09:32.280    31 629 kbps     00:32:58.434    28 727 kbps     00:32:53.429    101 211 bytes   338 527 bytes   00:32:58.768
STREAM DIAGNOSTICS:
File            PID             Type            Codec           Language                Seconds                 Bitrate                 Bytes           Packets
----            ---             ----            -----           --------                --------------          --------------          -------------   -----
00007.M2TS      4113 (0x1011)   0x1B            AVC                                     2019,809                19 415                  4 901 754 822   26 668 251
00007.M2TS      4352 (0x1100)   0x80            LPCM            deu (German)            2019,809                2 310                   583 222 936     3 231 159
00007.M2TS      4608 (0x1200)   0x90            PGS             eng (English)           2019,809                39                      9 851 845       54 698
00007.M2TS      4609 (0x1201)   0x90            PGS             deu (German)            2019,809                3                       813 341         4 549

Код:
<---- END FORUMS PASTE ---->
QUICK SUMMARY:
Disc Title: Scorpions - Live in 3D
Disc Size: 45 841 618 840 bytes
Protection: AACS
BD-Java: No
Playlist: 00004.MPLS
Size: 5 775 740 928 bytes
Length: 0:33:39
Total Bitrate: 22,87 Mbps
Video: MPEG-4 AVC Video / 19413 kbps / 1080p / 23,976 fps / 16:9 / High Profile 4.1
Audio: German / LPCM Audio / 2.0 / 48 kHz / 2304 kbps / 24-bit
Subtitle: English / 39,018 kbps
Subtitle: German / 3,221 kbps
********************
PLAYLIST: 01004.MPLS
********************
<--- BEGIN FORUMS PASTE --->
Код:
Код:
Total   Video
Title                                                           Codec   Length  Movie Size      Disc Size       Bitrate Bitrate Main Audio Track                          Secondary Audio Track
-----                                                           ------  ------- --------------  --------------  ------- ------- ------------------                        ---------------------
01004.MPLS                                                      AVC     0:33:39 5 775 740 928   45 841 618 840  22,87   19,41   LPCM 2.0 2304Kbps (48kHz/24-bit)

Код:
Код:
DISC INFO:
Disc Title:     Scorpions - Live in 3D
Disc Size:      45 841 618 840 bytes
Protection:     AACS
BD-Java:        No
Extras:         Blu-ray 3D
BDInfo:         0.5.6
PLAYLIST REPORT:
Name:                   01004.MPLS
Length:                 0:33:39 (h:m:s)
Size:                   5 775 740 928 bytes
Total Bitrate:          22,87 Mbps
VIDEO:
Codec                   Bitrate             Description
-----                   -------             -----------
MPEG-4 AVC Video        19413 kbps          1080p / 23,976 fps / 16:9 / High Profile 4.1
AUDIO:
Codec                           Language        Bitrate         Description
-----                           --------        -------         -----------
LPCM Audio                      German          2304 kbps       2.0 / 48 kHz / 2304 kbps / 24-bit
SUBTITLES:
Codec                           Language        Bitrate         Description
-----                           --------        -------         -----------
Presentation Graphics           English         39,018 kbps
Presentation Graphics           German          3,221 kbps
FILES:
Name            Time In         Length          Size            Total Bitrate
----            -------         ------          ----            -------------
00007.M2TS      0:00:00.000     0:33:39.976     5 775 740 928   22 874
CHAPTERS:
Number          Time In         Length          Avg Video Rate  Max 1-Sec Rate  Max 1-Sec Time  Max 5-Sec Rate  Max 5-Sec Time  Max 10Sec Rate  Max 10Sec Time  Avg Frame Size  Max Frame Size  Max Frame Time
------          -------         ------          --------------  --------------  --------------  --------------  --------------  --------------  --------------  --------------  --------------  --------------
1               0:00:00.000     0:33:39.976     19 413 kbps     40 165 kbps     00:09:32.280    31 629 kbps     00:32:58.434    28 727 kbps     00:32:53.429    101 211 bytes   338 527 bytes   00:32:58.768
STREAM DIAGNOSTICS:
File            PID             Type            Codec           Language                Seconds                 Bitrate                 Bytes           Packets
----            ---             ----            -----           --------                --------------          --------------          -------------   -----
00007.M2TS      4113 (0x1011)   0x1B            AVC                                     2019,809                19 415                  4 901 754 822   26 668 251
00007.M2TS      4352 (0x1100)   0x80            LPCM            deu (German)            2019,809                2 310                   583 222 936     3 231 159
00007.M2TS      4608 (0x1200)   0x90            PGS             eng (English)           2019,809                39                      9 851 845       54 698
00007.M2TS      4609 (0x1201)   0x90            PGS             deu (German)            2019,809                3                       813 341         4 549

Код:
<---- END FORUMS PASTE ---->
QUICK SUMMARY:
Disc Title: Scorpions - Live in 3D
Disc Size: 45 841 618 840 bytes
Protection: AACS
BD-Java: No
Playlist: 01004.MPLS
Size: 5 775 740 928 bytes
Length: 0:33:39
Total Bitrate: 22,87 Mbps
Video: MPEG-4 AVC Video / 19413 kbps / 1080p / 23,976 fps / 16:9 / High Profile 4.1
Audio: German / LPCM Audio / 2.0 / 48 kHz / 2304 kbps / 24-bit
Subtitle: English / 39,018 kbps
Subtitle: German / 3,221 kbps
********************
PLAYLIST: 00001.MPLS
********************
<--- BEGIN FORUMS PASTE --->
Код:
Код:
Total   Video
Title                                                           Codec   Length  Movie Size      Disc Size       Bitrate Bitrate Main Audio Track                          Secondary Audio Track
-----                                                           ------  ------- --------------  --------------  ------- ------- ------------------                        ---------------------
00001.MPLS                                                      AVC     0:01:10 206 462 976     45 841 618 840  23,57   20,72   LPCM 2.0 1536Kbps (48kHz/16-bit)

Код:
Код:
DISC INFO:
Disc Title:     Scorpions - Live in 3D
Disc Size:      45 841 618 840 bytes
Protection:     AACS
BD-Java:        No
Extras:         Blu-ray 3D
BDInfo:         0.5.6
PLAYLIST REPORT:
Name:                   00001.MPLS
Length:                 0:01:10 (h:m:s)
Size:                   206 462 976 bytes
Total Bitrate:          23,57 Mbps
VIDEO:
Codec                   Bitrate             Description
-----                   -------             -----------
MPEG-4 AVC Video        20715 kbps          1080p / 23,976 fps / 16:9 / High Profile 4.1
AUDIO:
Codec                           Language        Bitrate         Description
-----                           --------        -------         -----------
LPCM Audio                      English         1536 kbps       2.0 / 48 kHz / 1536 kbps / 16-bit
FILES:
Name            Time In         Length          Size            Total Bitrate
----            -------         ------          ----            -------------
00001.M2TS      0:00:00.000     0:01:10.069     206 462 976     23 572
CHAPTERS:
Number          Time In         Length          Avg Video Rate  Max 1-Sec Rate  Max 1-Sec Time  Max 5-Sec Rate  Max 5-Sec Time  Max 10Sec Rate  Max 10Sec Time  Avg Frame Size  Max Frame Size  Max Frame Time
------          -------         ------          --------------  --------------  --------------  --------------  --------------  --------------  --------------  --------------  --------------  --------------
1               0:00:00.000     0:01:10.069     20 715 kbps     35 476 kbps     00:00:03.920    27 969 kbps     00:00:01.251    24 216 kbps     00:00:00.542    108 001 bytes   751 058 bytes   00:00:59.142
STREAM DIAGNOSTICS:
File            PID             Type            Codec           Language                Seconds                 Bitrate                 Bytes           Packets
----            ---             ----            -----           --------                --------------          --------------          -------------   -----
00001.M2TS      4113 (0x1011)   0x1B            AVC                                     69,903                  20 765                  181 440 869     987 066
00001.M2TS      4352 (0x1100)   0x80            LPCM            eng (English)           69,903                  1 547                   13 513 352      84 108

Код:
<---- END FORUMS PASTE ---->
QUICK SUMMARY:
Disc Title: Scorpions - Live in 3D
Disc Size: 45 841 618 840 bytes
Protection: AACS
BD-Java: No
Playlist: 00001.MPLS
Size: 206 462 976 bytes
Length: 0:01:10
Total Bitrate: 23,57 Mbps
Video: MPEG-4 AVC Video / 20715 kbps / 1080p / 23,976 fps / 16:9 / High Profile 4.1
Audio: English / LPCM Audio / 2.0 / 48 kHz / 1536 kbps / 16-bit
********************
PLAYLIST: 01001.MPLS
********************
<--- BEGIN FORUMS PASTE --->
Код:
Код:
Total   Video
Title                                                           Codec   Length  Movie Size      Disc Size       Bitrate Bitrate Main Audio Track                          Secondary Audio Track
-----                                                           ------  ------- --------------  --------------  ------- ------- ------------------                        ---------------------
01001.MPLS                                                      AVC     0:01:10 206 462 976     45 841 618 840  23,57   20,72   LPCM 2.0 1536Kbps (48kHz/16-bit)

Код:
Код:
DISC INFO:
Disc Title:     Scorpions - Live in 3D
Disc Size:      45 841 618 840 bytes
Protection:     AACS
BD-Java:        No
Extras:         Blu-ray 3D
BDInfo:         0.5.6
PLAYLIST REPORT:
Name:                   01001.MPLS
Length:                 0:01:10 (h:m:s)
Size:                   206 462 976 bytes
Total Bitrate:          23,57 Mbps
VIDEO:
Codec                   Bitrate             Description
-----                   -------             -----------
MPEG-4 AVC Video        20715 kbps          1080p / 23,976 fps / 16:9 / High Profile 4.1
AUDIO:
Codec                           Language        Bitrate         Description
-----                           --------        -------         -----------
LPCM Audio                      English         1536 kbps       2.0 / 48 kHz / 1536 kbps / 16-bit
FILES:
Name            Time In         Length          Size            Total Bitrate
----            -------         ------          ----            -------------
00001.M2TS      0:00:00.000     0:01:10.069     206 462 976     23 572
CHAPTERS:
Number          Time In         Length          Avg Video Rate  Max 1-Sec Rate  Max 1-Sec Time  Max 5-Sec Rate  Max 5-Sec Time  Max 10Sec Rate  Max 10Sec Time  Avg Frame Size  Max Frame Size  Max Frame Time
------          -------         ------          --------------  --------------  --------------  --------------  --------------  --------------  --------------  --------------  --------------  --------------
1               0:00:00.000     0:01:10.069     20 715 kbps     35 476 kbps     00:00:03.920    27 969 kbps     00:00:01.251    24 216 kbps     00:00:00.542    108 001 bytes   751 058 bytes   00:00:59.142
STREAM DIAGNOSTICS:
File            PID             Type            Codec           Language                Seconds                 Bitrate                 Bytes           Packets
----            ---             ----            -----           --------                --------------          --------------          -------------   -----
00001.M2TS      4113 (0x1011)   0x1B            AVC                                     69,903                  20 765                  181 440 869     987 066
00001.M2TS      4352 (0x1100)   0x80            LPCM            eng (English)           69,903                  1 547                   13 513 352      84 108

Код:
<---- END FORUMS PASTE ---->
QUICK SUMMARY:
Disc Title: Scorpions - Live in 3D
Disc Size: 45 841 618 840 bytes
Protection: AACS
BD-Java: No
Playlist: 01001.MPLS
Size: 206 462 976 bytes
Length: 0:01:10
Total Bitrate: 23,57 Mbps
Video: MPEG-4 AVC Video / 20715 kbps / 1080p / 23,976 fps / 16:9 / High Profile 4.1
Audio: English / LPCM Audio / 2.0 / 48 kHz / 1536 kbps / 16-bit
********************
PLAYLIST: 00002.MPLS
********************
<--- BEGIN FORUMS PASTE --->
Код:
Код:
Total   Video
Title                                                           Codec   Length  Movie Size      Disc Size       Bitrate Bitrate Main Audio Track                          Secondary Audio Track
-----                                                           ------  ------- --------------  --------------  ------- ------- ------------------                        ---------------------
00002.MPLS                                                      AVC     0:01:00 181 266 432     45 841 618 840  24,14   21,26   LPCM 2.0 1536Kbps (48kHz/16-bit)

Код:
Код:
DISC INFO:
Disc Title:     Scorpions - Live in 3D
Disc Size:      45 841 618 840 bytes
Protection:     AACS
BD-Java:        No
Extras:         Blu-ray 3D
BDInfo:         0.5.6
PLAYLIST REPORT:
Name:                   00002.MPLS
Length:                 0:01:00 (h:m:s)
Size:                   181 266 432 bytes
Total Bitrate:          24,14 Mbps
VIDEO:
Codec                   Bitrate             Description
-----                   -------             -----------
MPEG-4 AVC Video        21262 kbps          1080p / 23,976 fps / 16:9 / High Profile 4.1
AUDIO:
Codec                           Language        Bitrate         Description
-----                           --------        -------         -----------
LPCM Audio                      English         1536 kbps       2.0 / 48 kHz / 1536 kbps / 16-bit
FILES:
Name            Time In         Length          Size            Total Bitrate
----            -------         ------          ----            -------------
00003.M2TS      0:00:00.000     0:01:00.060     181 266 432     24 145
CHAPTERS:
Number          Time In         Length          Avg Video Rate  Max 1-Sec Rate  Max 1-Sec Time  Max 5-Sec Rate  Max 5-Sec Time  Max 10Sec Rate  Max 10Sec Time  Avg Frame Size  Max Frame Size  Max Frame Time
------          -------         ------          --------------  --------------  --------------  --------------  --------------  --------------  --------------  --------------  --------------  --------------
1               0:00:00.000     0:01:00.060     21 262 kbps     29 044 kbps     00:00:32.615    23 660 kbps     00:00:28.653    22 585 kbps     00:00:41.166    110 850 bytes   800 905 bytes   00:00:01.000
STREAM DIAGNOSTICS:
File            PID             Type            Codec           Language                Seconds                 Bitrate                 Bytes           Packets
----            ---             ----            -----           --------                --------------          --------------          -------------   -----
00003.M2TS      4113 (0x1011)   0x1B            AVC                                     59,893                  21 321                  159 624 374     868 360
00003.M2TS      4352 (0x1100)   0x80            LPCM            eng (English)           59,893                  1 547                   11 580 532      72 078

Код:
<---- END FORUMS PASTE ---->
QUICK SUMMARY:
Disc Title: Scorpions - Live in 3D
Disc Size: 45 841 618 840 bytes
Protection: AACS
BD-Java: No
Playlist: 00002.MPLS
Size: 181 266 432 bytes
Length: 0:01:00
Total Bitrate: 24,14 Mbps
Video: MPEG-4 AVC Video / 21262 kbps / 1080p / 23,976 fps / 16:9 / High Profile 4.1
Audio: English / LPCM Audio / 2.0 / 48 kHz / 1536 kbps / 16-bit
********************
PLAYLIST: 01002.MPLS
********************
<--- BEGIN FORUMS PASTE --->
Код:
Код:
Total   Video
Title                                                           Codec   Length  Movie Size      Disc Size       Bitrate Bitrate Main Audio Track                          Secondary Audio Track
-----                                                           ------  ------- --------------  --------------  ------- ------- ------------------                        ---------------------
01002.MPLS                                                      AVC     0:01:00 181 266 432     45 841 618 840  24,14   21,26   LPCM 2.0 1536Kbps (48kHz/16-bit)

Код:
Код:
DISC INFO:
Disc Title:     Scorpions - Live in 3D
Disc Size:      45 841 618 840 bytes
Protection:     AACS
BD-Java:        No
Extras:         Blu-ray 3D
BDInfo:         0.5.6
PLAYLIST REPORT:
Name:                   01002.MPLS
Length:                 0:01:00 (h:m:s)
Size:                   181 266 432 bytes
Total Bitrate:          24,14 Mbps
VIDEO:
Codec                   Bitrate             Description
-----                   -------             -----------
MPEG-4 AVC Video        21262 kbps          1080p / 23,976 fps / 16:9 / High Profile 4.1
AUDIO:
Codec                           Language        Bitrate         Description
-----                           --------        -------         -----------
LPCM Audio                      English         1536 kbps       2.0 / 48 kHz / 1536 kbps / 16-bit
FILES:
Name            Time In         Length          Size            Total Bitrate
----            -------         ------          ----            -------------
00003.M2TS      0:00:00.000     0:01:00.060     181 266 432     24 145
CHAPTERS:
Number          Time In         Length          Avg Video Rate  Max 1-Sec Rate  Max 1-Sec Time  Max 5-Sec Rate  Max 5-Sec Time  Max 10Sec Rate  Max 10Sec Time  Avg Frame Size  Max Frame Size  Max Frame Time
------          -------         ------          --------------  --------------  --------------  --------------  --------------  --------------  --------------  --------------  --------------  --------------
1               0:00:00.000     0:01:00.060     21 262 kbps     29 044 kbps     00:00:32.615    23 660 kbps     00:00:28.653    22 585 kbps     00:00:41.166    110 850 bytes   800 905 bytes   00:00:01.000
STREAM DIAGNOSTICS:
File            PID             Type            Codec           Language                Seconds                 Bitrate                 Bytes           Packets
----            ---             ----            -----           --------                --------------          --------------          -------------   -----
00003.M2TS      4113 (0x1011)   0x1B            AVC                                     59,893                  21 321                  159 624 374     868 360
00003.M2TS      4352 (0x1100)   0x80            LPCM            eng (English)           59,893                  1 547                   11 580 532      72 078

Код:
<---- END FORUMS PASTE ---->
QUICK SUMMARY:
Disc Title: Scorpions - Live in 3D
Disc Size: 45 841 618 840 bytes
Protection: AACS
BD-Java: No
Playlist: 01002.MPLS
Size: 181 266 432 bytes
Length: 0:01:00
Total Bitrate: 24,14 Mbps
Video: MPEG-4 AVC Video / 21262 kbps / 1080p / 23,976 fps / 16:9 / High Profile 4.1
Audio: English / LPCM Audio / 2.0 / 48 kHz / 1536 kbps / 16-bit
Скриншоты

Внимание!
Если у Вас отсутствует 3D оборудования, то данный диск будет воспроизводиться как 2D.
Прежде, чем задать вопрос о том, как смотреть и т.д. и т.п. - прочитайте FAQ




реклама партнёра


Вернуться к началу
 Профиль Отправить личное сообщение  
 
   Похожие торренты   Автор   Торрент   Размер 
В этой теме нет новых непрочитанных сообщений. Scorpions - MTV Unplugged: Live In Athens (2CD) [2013, Hard Rock, MP3]

PriZraK

35 | 4

262.02 МБ

В этой теме нет новых непрочитанных сообщений. Sting – The Best Of [2011, Rock, New Wave, Jazz, Reggae, Classical, New Age, Pop Rock, Blue Eyed Soul, MP3]

PriZraK

6 | 2

181.4 МБ

В этой теме нет новых непрочитанных сообщений. Полное затмение / Blackout / Total Blackout [фантастика, боевик, триллер, драма, 2009] SATRip, MVo

salma3

6 | 2

1.45 ГБ

В этой теме нет новых непрочитанных сообщений. The Blackout - Hope [2011, Post-hardcore, alternative rock, MP3]

PriZraK

0 | 1

93.18 МБ

В этой теме нет новых непрочитанных сообщений. Dynamite - Blackout Station [2014, Hard Rock, MP3]

PriZraK

0 | 2

85.6 МБ

В этой теме нет новых непрочитанных сообщений. Sting - 25 Best Songs [2014, Rock, MP3]

PriZraK

0 | 1

206.16 МБ

В этой теме нет новых непрочитанных сообщений. Scorpions - The Platinum Collection [2005, Rock, MP3, 3CD]

PriZraK

59 | 5

492.04 МБ


Начать новую тему Ответить на тему  [ 1 сообщение ] 




Для Мосгорсуда, Роскомнадзора и рекламодателей:: mosgorsud-torrent[собачка]yandex.ru