Торрент файл
скачать торрент магнет ссылка Добавлен: 07 окт 2012, 21:32
Размер: 6.78 ГБ
Сидеров: 16
Личеров: 6
Автор

СообщениеДобавлено: 07 окт 2012, 21:32 

Не в сети
Аватара пользователя
Дата регистрации:
28 ноя 2010, 22:22
Спасибо: 705 / 5
Сообщения: 2031
Бритни / Britney Spears Live The Femme Fatale Tour
Год выпуска: 2011
Страна: США
Студия: Sky 3D
Жанр: документальный, музыка
Продолжительность: 01:25:00
Перевод: Отсутствует
Русские субтитры: нет
Режиссер на русском: Тед Кенни, Дэниель «Облако» Кампос, Omar Cruz
В ролях:

Бритни Спирс, Ники Минаж, Sabi, Уилл Ай Эм, Рудольф Мартин, Aminah Abdul-Jillil, Софи Агуар, Джордж Александр, Чейз Бенц, Ава Бернстайн
Описание:
Седьмой концертный тур американской певицы Бритни Спирс в поддержку своего седьмого студийного альбома Femme Fatale (Роковая Женщина).

3D4ALL &
Track-list:
01. Hold It Against Me
02. Up N' Down
03. 3
04. Piece Of Me
05. Big Fat Bass
06. How I Roll
07. Lace And Leather
08. If U Seek Amy
09. Gimme More
10. (Drop Dead) Beautiful
11. Don't Let Me Be The Last To Know
12. Boys
13. ...Baby One More Time
14. S&M
15. Trouble For Me
16. I'm A Slave 4 U
17. I Wanna Go
18. Womanizer
19. Toxic
20. Till The World Ends
Качество: HDTV
Контейнер: MKV
Формат 3D: Half SideBySide / Горизонтальная анаморфная стереопара
Видео кодек: MVC
Аудио кодек: AC3
Видео: 1920x1080i, 25 fps, ~ 10.8 mbps, H-SBS, L/R
Аудио: DD 5.1, 384 kbps
MediaInfo
General
Format : Matroska
File size : 6.78 GiB
Duration : 1h 25mn
Overall bit rate : 11.4 Mbps
Video
ID : 1
Format : AVC
Format/Info : Advanced Video Codec
Format profile : Main@L4.0
Format settings, CABAC : Yes
Format settings, ReFrames : 2 frames
Format settings, GOP : M=3, N=15
Codec ID : V_MPEG4/ISO/AVC
Duration : 1h 25mn
Bit rate mode : Variable
Bit rate : 10.8 Mbps
Maximum bit rate : 16.5 Mbps
Width : 1 920 pixels
Height : 1 080 pixels
Display aspect ratio : 16:9
Frame rate : 25.000 fps
Color space : YUV
Chroma subsampling : 4:2:0
Bit depth : 8 bits
Scan type : Progressive
Bits/(Pixel*Frame) : 0.208
Stream size : 6.41 GiB (95%)
Audio
ID : 2
Format : AC-3
Format/Info : Audio Coding 3
Mode extension : CM (complete main)
Codec ID : A_AC3
Duration : 1h 25mn
Bit rate mode : Constant
Bit rate : 384 Kbps
Channel(s) : 6 channels
Channel positions : Front: L C R, Side: L R, LFE
Sampling rate : 48.0 KHz
Bit depth : 16 bits
Compression mode : Lossy
Stream size : 234 MiB (3%)
Language : English
Скриншоты




реклама партнёра


Вернуться к началу
 Профиль Отправить личное сообщение  
 
   Похожие торренты   Автор   Торрент   Размер 
В этой теме нет новых непрочитанных сообщений. Голос [03х01-16] [Музыка, концерт, 2014] HDTV 1080i

Dracon

1 | 4

167.7 ГБ

В этой теме нет новых непрочитанных сообщений. Голос [04х17] (Первый канал) [Музыка, концерт, 2015] HDTV 1080i

Dracon

1232 | 190

9.64 ГБ

В этой теме нет новых непрочитанных сообщений. Голос [04х04] (Первый канал) [Музыка, концерт, 2015] HDTV 1080i

Dracon

1080 | 217

8.39 ГБ

В этой теме нет новых непрочитанных сообщений. Голос [04х02] (Первый канал) [Музыка, концерт, 2015] HDTV 1080i

Dracon

738 | 99

10.03 ГБ

В этой теме нет новых непрочитанных сообщений. Голос [04х05] (Первый канал) [Музыка, концерт, 2015] HDTV 1080i

Dracon

950 | 362

8.76 ГБ

В этой теме нет новых непрочитанных сообщений. Голос [04х11] (Первый канал) [Музыка, концерт, 2015] HDTV 1080i

Dracon

839 | 302

6.86 ГБ

В этой теме нет новых непрочитанных сообщений. Голос [04х03] (Первый канал) [Музыка, концерт, 2015] HDTV 1080i

Dracon

782 | 163

10.75 ГБ


Начать новую тему Ответить на тему  [ 1 сообщение ] 




Для Мосгорсуда, Роскомнадзора и рекламодателей:: mosgorsud-torrent[собачка]yandex.ru