Торрент файл
скачать торрент магнет ссылка Добавлен: 07 окт 2012, 21:31
Размер: 7.49 ГБ
Сидеров: 3
Личеров: 3
Автор

СообщениеДобавлено: 07 окт 2012, 21:31 

Не в сети
Аватара пользователя
Дата регистрации:
28 ноя 2010, 22:22
Спасибо: 705 / 5
Сообщения: 2031
Группа «Торба-на-круче». Концерт в честь двенадцатилетия коллектива в клубе «Космонавт»
Телеканал:
Год выпуска: 2010
Страна: Россия
Жанр: Rock
Продолжительность: 01:48:00
Перевод: Не требуется
Русские субтитры: нет
Описание: 13 ноября 2010 года в клубе «Космонавт» группа "Торба-на-круче" дала концерт в честь двенадцатилетия своего коллектива.
«Торба-на-круче» - рок-группа, которая существует с 1998 года. По мнению критиков, команда является практически уникальной. Главная изюминка группы – это неповторимый и сильный вокал солиста Макса Иванова. За 12 лет своего существования коллектив прошел путь от выступлений на маленьких клубных площадках до участия в российских и зарубежных рок-фестивалях. По словам музыкантов, они дали самый несерьезный концерт в своей истории, дабы развеять миф «серьезной группы».
Качество: HDTV
Контейнер: MKV
Формат 3D: Half SideBySide / Горизонтальная анаморфная стереопара
Порядок ракурсов: левый ракурс первый
Видео кодек: AVC
Аудио кодек: AC3
Видео: AVC / 1920:1080 /16:9 / 9 918 Kbps / 25.000 fp
Аудио: AC3 / 2 channels / 448 Kbps / 48.0 KHz
MediaInfo
D:\Upload\Torba_na_kruche_12_let_3d.mkv
General
Unique ID : 101882145290316532243135898542851577568 (0x4CA5C995C0D497BD81FFC07F889556E0)
Complete name : D:\Upload\Torba_na_kruche_12_let_3d.mkv
Format : Matroska
File size : 7.49 GiB
Duration : 1h 48mn
Overall bit rate : 9 918 Kbps
Encoded date : UTC 2012-08-14 14:56:43
Writing library : Haali DirectShow Matroska Muxer 1.11.96.14
Video #1
ID : 1
Format : AVC
Format/Info : Advanced Video Codec
Format profile : Main@L4.0
Format settings, CABAC : Yes
Format settings, ReFrames : 3 frames
Format settings, GOP : M=1, N=62
Codec ID : V_MPEG4/ISO/AVC
Duration : 1h 48mn
Bit rate : 9 272 Kbps
Width : 1 920 pixels
Height : 1 080 pixels
Display aspect ratio : 16:9
Frame rate : 25.000 fps
Standard : Component
Color space : YUV
Chroma subsampling : 4:2:0
Bit depth : 8 bits
Scan type : Interlaced
Scan order : Top Field First
Bits/(Pixel*Frame) : 0.179
Stream size : 7.00 GiB (93%)
Title : PID 322 Video
Color primaries : BT.709-5, BT.1361, IEC 61966-2-4, SMPTE RP177
Transfer characteristics : BT.709-5, BT.1361
Matrix coefficients : BT.709-5, BT.1361, IEC 61966-2-4 709, SMPTE RP177
Audio #2
ID : 2
Format : AC-3
Format/Info : Audio Coding 3
Mode extension : CM (complete main)
Codec ID : A_AC3
Duration : 1h 48mn
Bit rate mode : Constant
Bit rate : 448 Kbps
Channel(s) : 2 channels
Channel positions : Front: L R
Sampling rate : 48.0 KHz
Bit depth : 16 bits
Compression mode : Lossy
Delay relative to video : -13ms
Stream size : 347 MiB (5%)
Title : AC3
Language : Russian
Скриншоты








реклама партнёра


Вернуться к началу
 Профиль Отправить личное сообщение  
 
   Похожие торренты   Автор   Торрент   Размер 
В этой теме нет новых непрочитанных сообщений. Группа Пелагея - Вишнёвый сад (Светлана Ханова) [Концерт, 2015] HDTV 1080i

Dracon

672 | 139

6.34 ГБ

В этой теме нет новых непрочитанных сообщений. Юбилейный концерт Евгения Крылатова [03.01] (Россия) [Концерт, 2015] HDTV 1080i

Dracon

18 | 3

5.49 ГБ

В этой теме нет новых непрочитанных сообщений. Концерт Ирины Аллегровой в Олимпийском (Россия) [Концерт, 2015] HDTV 1080i

Dracon

335 | 52

6.13 ГБ

В этой теме нет новых непрочитанных сообщений. Торжественный концерт ко Дню Победы. Красная площадь (Россия) [Концерт, 2015] HDTV 1080i

Dracon

648 | 139

8.98 ГБ

В этой теме нет новых непрочитанных сообщений. Юбилейный концерт Игоря Крутого из Государственного Кремлевского дворца [03.01] (Россия) [Концерт, 2015] HDTV 1080i

Dracon

33 | 2

9.63 ГБ

В этой теме нет новых непрочитанных сообщений. Группа / The Group [драма, 1966] HDTV 1080i, Dvo

salma3

12 | 7

5.88 ГБ

В этой теме нет новых непрочитанных сообщений. Ёлка. Большой концерт [Pop, 2014] HDTV 1080p

Dracon

45 | 17

18.06 ГБ


Начать новую тему Ответить на тему  [ 1 сообщение ] 




Для Мосгорсуда, Роскомнадзора и рекламодателей:: mosgorsud-torrent[собачка]yandex.ru