Торрент файл
скачать торрент магнет ссылка Добавлен: 07 окт 2012, 21:30
Размер: 4.62 ГБ
Сидеров: 4
Личеров: 4
Автор

СообщениеДобавлено: 07 окт 2012, 21:30 

Не в сети
Аватара пользователя
Дата регистрации:
28 ноя 2010, 22:22
Спасибо: 706 / 5
Сообщения: 2031
Русскоязычное театрализованное шоу "Блюз в голове-2" группы Billy’s Band
Телеканал:
Год выпуска: 2011
Страна: Россия
Студия: 3D MEDIA GROUP
Жанр: Русскоязычное театрализованное шоу
Продолжительность: 01:46:00
Перевод: Не требуется
Русские субтитры: нет
Описание: Питерская группа Billy’s Band – это феномен в музыкальном мире, доказавший, что можно обойтись без стандартов и привычных ярлыков шоу-бизнеса, а создать свой неповторимый и неподражаемый музыкальный образ и стиль. За десять лет своего триумфального восхождения, при том, что группа не выступает на сценах больших концертных залов, она сумела покорить не только публику двух столиц – Питера и Москвы, но и распространить географию популярности в восточных и западных направлениях.
В Санкт-Петербурге Billy’s Band выступил 23 мая 2011 года на сцене Санкт-Петербургского ТЮЗа им. А. А. Брянцева с программой «Блюз в голове». Это своеобразный синтез городского фольклора – исповедь уличного бродяги в классических традициях американских, французских кварталов с примесью родных питерских коммуналок. Запоминающийся хрипловатый голос Билли с песнями-монологами, «подглядками» из жизни, которые впоследствии стали целыми историями, рассказанными зрителю. Под стать голосу – образ вечного бродяги в рваном плаще на голое тело, в шляпе и с контрабасом в руках, который служит для Билли главным сценическим атрибутом.
Сопровождают бродягу его «сотоварищи», в образе таких же хронических неудачников – гитарист Андрей «Рыжик» Резников, Антон Матезиус с неразлучным баяном и саксофонист-виртуоз – Михаил Жидких.
Программа «Блюз в голове» – это целый спектакль с оригинальными видеопроекциями, световой иллюминацией, с театральными декорациями в духе городской действительности и, конечно, суровая «правда жизни» в стиле блюз в исполнении музыкантов группы Billy’s Band
Качество: HDTV
Контейнер: MKV
Формат 3D: Half SideBySide / Горизонтальная анаморфная стереопара
Порядок ракурсов: левый ракурс первый
Видео кодек: AVC
Аудио кодек: AC3
Видео: AVC / 1920:1080 /16:9 / 5 655 Kbps/ 25.000 fp
Аудио: AC3 / 2 channels / 448 Kbps / 48.0 KHz
MediaInfo
D:\Upload\blues_v_golove_3d.mkv
General
Unique ID : 35075461619201893985452026842344383947 (0x1A6349C676A7A2755379E448EBC4E5CB)
Complete name : D:\Upload\blues_v_golove_3d.mkv
Format : Matroska
File size : 4.62 GiB
Duration : 1h 46mn
Overall bit rate : 6 227 Kbps
Encoded date : UTC 2012-08-19 13:24:15
Writing library : Haali DirectShow Matroska Muxer 1.11.96.14
Video #1
ID : 1
Format : AVC
Format/Info : Advanced Video Codec
Format profile : Main@L4.0
Format settings, CABAC : Yes
Format settings, ReFrames : 3 frames
Format settings, GOP : M=1, N=62
Codec ID : V_MPEG4/ISO/AVC
Duration : 1h 46mn
Bit rate : 5 655 Kbps
Width : 1 920 pixels
Height : 1 080 pixels
Display aspect ratio : 16:9
Frame rate : 25.000 fps
Standard : Component
Color space : YUV
Chroma subsampling : 4:2:0
Bit depth : 8 bits
Scan type : Interlaced
Scan order : Top Field First
Bits/(Pixel*Frame) : 0.109
Stream size : 4.19 GiB (91%)
Title : PID 322 Video
Color primaries : BT.709-5, BT.1361, IEC 61966-2-4, SMPTE RP177
Transfer characteristics : BT.709-5, BT.1361
Matrix coefficients : BT.709-5, BT.1361, IEC 61966-2-4 709, SMPTE RP177
Audio #2
ID : 2
Format : AC-3
Format/Info : Audio Coding 3
Mode extension : CM (complete main)
Codec ID : A_AC3
Duration : 1h 46mn
Bit rate mode : Constant
Bit rate : 448 Kbps
Channel(s) : 2 channels
Channel positions : Front: L R
Sampling rate : 48.0 KHz
Bit depth : 16 bits
Compression mode : Lossy
Delay relative to video : -13ms
Stream size : 340 MiB (7%)
Title : AC3
Language : Russian
Скриншоты








реклама партнёра


Вернуться к началу
 Профиль Отправить личное сообщение  
 
   Похожие торренты   Автор   Торрент   Размер 
В этой теме нет новых непрочитанных сообщений. Billy Cox & Buddy Miles - The Band Of Gypsys Return [2006, Rock, Blues, MP3]

PriZraK

1 | 2

136.24 МБ

В этой теме нет новых непрочитанных сообщений. Billy Talent - Billy Talent: 10th Anniversary Edition (2CD) [2013, Alternative Rock, Punk Rock, SKA Punk, MP3]

PriZraK

9 | 2

192.58 МБ

В этой теме нет новых непрочитанных сообщений. Wild Billy Childish & CTMF (The KLF) - Wild Billy Childish & CTMF (EP) [08.04.2013, Garage Rock, MP3]

PriZraK

0 | 1

26.29 МБ

В этой теме нет новых непрочитанных сообщений. Alex Band - Alex Band [EP] [2008, Pop Rock, MP3]

PriZraK

0 | 1

36.99 МБ

В этой теме нет новых непрочитанных сообщений. Kyle Gass Band - Kyle Gass Band [2013, Hard Rock, MP3]

PriZraK

0 | 1

90.93 МБ

В этой теме нет новых непрочитанных сообщений. Мёд в голове / Honig im Kopf [драма, комедия, приключения, семейный, 2014] BDRip, Mvo

salma3

150 | 1

1.47 ГБ

В этой теме нет новых непрочитанных сообщений. Мёд в голове / Honig im Kopf (Тиль Швайгер) [2014, драма, комедия, приключения, BDRip-AVC] mvo

Nickolas3435

478 | 29

2.18 ГБ


Начать новую тему Ответить на тему  [ 1 сообщение ] 




Для Мосгорсуда, Роскомнадзора и рекламодателей:: mosgorsud-torrent[собачка]yandex.ru