Торрент файл
скачать торрент магнет ссылка Добавлен: 07 окт 2012, 21:30
Размер: 2.59 ГБ
Сидеров: 4
Личеров: 4
Автор

СообщениеДобавлено: 07 окт 2012, 21:30 

Не в сети
Аватара пользователя
Дата регистрации:
28 ноя 2010, 22:22
Спасибо: 704 / 5
Сообщения: 2031
Harcsa Veronika - Gyémánt Bálint
Дата: 27.07.2012
Страна: Венгрия
Жанр: Jazz
Продолжительность: 55:12
Перевод: Не требуется
Русские субтитры: Нет
В главных ролях: Harcsa Veronika и Gyémánt Bálint
Автор рипа: Nikolay_-_-
Канал:
Дополнительная информация: Jazz я редко смотрю, но данный концерт мне очень понравился, а треклиста нет и не будет, потому что титров не было, а венгерский язык я не знаю.
Формат 3D: SideBySide | Горизонтальная анаморфная стереопара
Качество: HDTV
Формат: TS
Видео: H264; 1920x1080 (16:9); 25.000 fps; 5995 kbps
Аудио: AC-3; 48000 Hz; 384 kbps; 6 channels
MediaInfo
Общее
Идентификатор : 6200 (0x1838)
Полное имя : F:\Закачки\Harcsa Veronika и Gyémánt Bálint-Nikolay_-_-.ts
Формат : MPEG-TS
Размер файла : 2,59 Гбайт
Продолжительность : 55 м.
Общий поток : 6715 Кбит/сек
Видео
Идентификатор : 1105 (0x451)
Идентификатор меню : 105 (0x69)
Формат : AVC
Формат/Информация : Advanced Video Codec
Профиль формата : Main@L4.0
Параметр CABAC формата : Да
Параметр ReFrames формата : 4 кадра
Параметр GOP формата : M=4, N=28
Идентификатор кодека : 27
Продолжительность : 55 м.
Битрейт : 5995 Кбит/сек
Ширина : 1920 пикселей
Высота : 1080 пикселей
Соотношение сторон : 16:9
Частота кадров : 25,000 кадров/сек
Стандарт вещания : Component
Цветовое пространство : YUV
Субдискретизация насыщенности : 4:2:0
Битовая глубина : 8 бит
Тип развёртки : Чересстрочная
Порядок развёртки : Верхнее поле первое
Бит/(Пиксели*Кадры) : 0.116
Размер потока : 2,31 Гбайт (89%)
Основные цвета : BT.709-5, BT.1361, IEC 61966-2-4, SMPTE RP177
Характеристики трансфера : BT.709-5, BT.1361
Коэффициенты матрицы : BT.709-5, BT.1361, IEC 61966-2-4 709, SMPTE RP177
Аудио
Идентификатор : 1205 (0x4B5)
Идентификатор меню : 105 (0x69)
Формат : AC-3
Формат/Информация : Audio Coding 3
Расширение режима : CM (complete main)
Параметр Endianness формата : Big
Идентификатор кодека : 6
Продолжительность : 55 м.
Вид битрейта : Постоянный
Битрейт : 384 Кбит/сек
Каналы : 6 каналов
Расположение каналов : Front: L C R, Side: L R, LFE
Частота : 48,0 КГц
Битовая глубина : 16 бит
Метод сжатия : С потерями
Задержка видео : -1 с. 634 мс.
Размер потока : 152 Мбайт (6%)
Язык : Hungarian
Текст
Идентификатор : 1501 (0x5DD)-100
Идентификатор меню : 105 (0x69)
Формат : Teletext
Язык : Hungarian
Меню
Идентификатор : 1705 (0x6A9)
Идентификатор меню : 105 (0x69)
Продолжительность : 55 м.
Список : 1105 (0x451) (AVC) / 1205 (0x4B5) (AC-3, Hungarian) / 1501 (0x5DD) ()
Язык : / Hungarian
Скриншоты





реклама партнёра


Вернуться к началу
 Профиль Отправить личное сообщение  
 
   Похожие торренты   Автор   Торрент   Размер 
В этой теме нет новых непрочитанных сообщений. VA - Jazz - Deluxe [20 Jazz Music Standards] [2014, Jazz, Easy Listening, MP3]

Nickolas3435

255 | 15

178.04 МБ

В этой теме нет новых непрочитанных сообщений. Veronika (2016) HD 720p

Dile-1

28 | 15

243.73 МБ

В этой теме нет новых непрочитанных сообщений. Veronika (2015) HD 720p

Dile-1

9 | 42

796.07 МБ

В этой теме нет новых непрочитанных сообщений. Serj Tankian - Jazz-iz Christ [2013, Alternative, Jazz, Symphonic, MP3]

PriZraK

0 | 1

129.81 МБ

В этой теме нет новых непрочитанных сообщений. Oscar Peterson - Jazz Masters 16 [Jazz, Bop, 1993] MP3 / 320 Kbit/s

salma3

1 | 2

146.73 МБ

В этой теме нет новых непрочитанных сообщений. VA - Hello Jazz New Generation [Jazz, Blues, 2017] MP3 / 320 kbps

salma3

6 | 2

821.38 МБ

В этой теме нет новых непрочитанных сообщений. Trix - Power [2012, Jazz Rock, Fusion, MP3]

PriZraK

0 | 1

108.55 МБ


Начать новую тему Ответить на тему  [ 1 сообщение ] 




Для Мосгорсуда, Роскомнадзора и рекламодателей:: mosgorsud-torrent[собачка]yandex.ru