Торрент файл
скачать торрент магнет ссылка Добавлен: 07 окт 2012, 21:30
Размер: 33.51 ГБ
Сидеров: 6
Личеров: 5
Автор

СообщениеДобавлено: 07 окт 2012, 21:30 

Не в сети
Аватара пользователя
Дата регистрации:
28 ноя 2010, 22:22
Спасибо: 713 / 5
Сообщения: 2030
Goldberg Variations Acoustica
Год выпуска: 2010
Жанр: Acoustic
Продолжительность: 52 мин. 59 сек.
Страна: CША
Русские субтитры: нет
Исполнители: Jim Cox (piano, organ), Wurlitzer (electric piano), Dean Parks (electric guitar), Laurence Juber (acoustic guitar), Alberto Lopez (percussion), Kevin Axt (acoustic bass); MB Gordy (drums)
Качество: Blu-Ray (BD-25 Single-Layer Disc)
Контейнер: BDMV
Видео: MPEG-4 AVC Video / 12136 kbps / 720p / 59,940 fps / 16:9 / High Profile 4.0
Аудио #1: English Dolby TrueHD Audio / 5.1 / 96 kHz / 7041 kbps / 24-bit (AC3 Embedded: 5.1 / 48 kHz / 640 kbps)
Аудио #2: English Dolby TrueHD Audio / 5.1 / 96 kHz / 6865 kbps / 24-bit (AC3 Embedded: 5.1 / 48 kHz / 640 kbps)
Аудио #3: English LPCM Audio / 2.0 / 96 kHz / 4608 kbps / 24-bit
Русские субтитры: нет
Релиз от:
Описание:
Это первый в мире музыкальный альбом, записанный в формате Blu-ray 3D. Видеосъемки выполнялись настоящими 3D камерами, вся музыкальная сессия записана с использованием инновационных технологий AIX Records.

AIX Records leads the industry with the first commercially available Blu-ray 3D(TM) music disc. Shot using real HD 3D cameras, the entire surround music experience is enhanced once again by AIX Records' innovation.
This is the world's first 3D Music Album, the first Blu-ray 3D disc with Dolby TrueHD, the first Blu-Ray 3D disc with multiple mixes and only the second Blu-ray 3D disc to be commercially available. AIX Records is very proud to be able to present a unique vision of recorded music. We recorded 6 projects in full HD 3D and will be making them available on the BD 3D format over the next few months. If you have a new 3D TV, you should definitely check this disc out. It is also fully compatible with standard 2D Blu-ray players and TVs.
This is the world's first 3D Music Album(tm)! AIX Records recorded this amazing performance in early June 2010 and completed all of the post production work in record time, only two months. You can enjoy this disc in full HD 3D if you have a new 3D capable TV AND a 3D Blu-ray player. NOTE: There are some new BD 3D players that will require a new firmware update in order to play this disc! Please check with the manufacturer in order to get the very latest firmware. Sometimes the firmware updates happen weekly or even daily.
The very first 3D Music Album (tm) on Blu-Ray features this 53 minute improvisation by the AIX All-Star Band on Bach's Goldberg Variations.
BDInfo
Disc Title:
Disc Size: 35 979 622 434 bytes
Protection: AACS
BD-Java: Yes
BDInfo: 0.5.3
Notes:
BDINFO HOME:
Cinema Squid
http://www.cinemasquid.com/blu-ray/tools/bdinfo
INCLUDES FORUMS REPORT FOR:
AVS Forum Blu-ray Audio and Video Specifications Thread
http://www.avsforum.com/avs-vb/showthread.php?t=1155731
********************
PLAYLIST: 00002.MPLS
********************
<--- BEGIN FORUMS PASTE --->Код:
Код:
Total   Video
Title                                                           Codec   Length  Movie Size      Disc Size       Bitrate Bitrate Main Audio Track                          Secondary Audio Track
-----                                                           ------  ------- --------------  --------------  ------- ------- ------------------                        ---------------------
00002.MPLS                                                      AVC     0:52:59 14 321 682 432  35 979 622 434  36,04   12,14   Dolby TrueHD 5.1 7041Kbps (96kHz/24-bit)  Dolby TrueHD 5.1 6865Kbps (96kHz/24-bit)

Код:
Код:
DISC INFO:
Disc Title:
Disc Size:      35 979 622 434 bytes
Protection:     AACS
BD-Java:        Yes
BDInfo:         0.5.3
PLAYLIST REPORT:
Name:                   00002.MPLS
Length:                 0:52:59 (h:m:s)
Size:                   14 321 682 432 bytes
Total Bitrate:          36,04 Mbps
VIDEO:
Codec                   Bitrate             Description
-----                   -------             -----------
MPEG-4 AVC Video        12136 kbps          720p / 59,940 fps / 16:9 / High Profile 4.0
AUDIO:
Codec                           Language        Bitrate         Description
-----                           --------        -------         -----------
Dolby TrueHD Audio              English         7041 kbps       5.1 / 96 kHz / 7041 kbps / 24-bit (AC3 Embedded: 5.1 / 48 kHz / 640 kbps)
Dolby TrueHD Audio              English         6865 kbps       5.1 / 96 kHz / 6865 kbps / 24-bit (AC3 Embedded: 5.1 / 48 kHz / 640 kbps)
LPCM Audio                      English         4608 kbps       2.0 / 96 kHz / 4608 kbps / 24-bit
FILES:
Name            Time In         Length          Size            Total Bitrate
----            -------         ------          ----            -------------
00004.M2TS      0:00:00.000     0:52:59.042     14 321 682 432  36 040
CHAPTERS:
Number          Time In         Length          Avg Video Rate  Max 1-Sec Rate  Max 1-Sec Time  Max 5-Sec Rate  Max 5-Sec Time  Max 10Sec Rate  Max 10Sec Time  Avg Frame Size  Max Frame Size  Max Frame Time
------          -------         ------          --------------  --------------  --------------  --------------  --------------  --------------  --------------  --------------  --------------  --------------
1               0:00:00.000     0:52:59.042     12 136 kbps     19 301 kbps     00:12:09.128    14 393 kbps     00:13:54.717    13 417 kbps     00:40:16.030    25 308 bytes    249 148 bytes   00:01:55.615
STREAM DIAGNOSTICS:
File            PID             Type            Codec           Language                Seconds                 Bitrate                 Bytes           Packets
----            ---             ----            -----           --------                --------------          --------------          -------------   -----
00004.M2TS      4113 (0x1011)   0x1B            AVC                                     3179,009                12 136                  4 822 480 243   26 319 676
00004.M2TS      4352 (0x1100)   0x83            TrueHD          eng (English)           3179,009                7 681                   3 052 208 834   19 133 803
00004.M2TS      4353 (0x1101)   0x83            TrueHD          eng (English)           3179,009                7 505                   2 982 304 186   18 716 732
00004.M2TS      4354 (0x1102)   0x80            LPCM            eng (English)           3179,009                4 614                   1 833 671 556   10 172 936

<---- END FORUMS PASTE ---->
QUICK SUMMARY:
Disc Title:
Disc Size: 35 979 622 434 bytes
Protection: AACS
BD-Java: Yes
Playlist: 00002.MPLS
Size: 14 321 682 432 bytes
Length: 0:52:59
Total Bitrate: 36,04 Mbps
Video: MPEG-4 AVC Video / 12136 kbps / 720p / 59,940 fps / 16:9 / High Profile 4.0
Audio: English / Dolby TrueHD Audio / 5.1 / 96 kHz / 7041 kbps / 24-bit (AC3 Embedded: 5.1 / 48 kHz / 640 kbps)
Audio: English / Dolby TrueHD Audio / 5.1 / 96 kHz / 6865 kbps / 24-bit (AC3 Embedded: 5.1 / 48 kHz / 640 kbps)
Audio: English / LPCM Audio / 2.0 / 96 kHz / 4608 kbps / 24-bit
********************
PLAYLIST: 01002.MPLS
********************
<--- BEGIN FORUMS PASTE --->Код:
Код:
Total   Video
Title                                                           Codec   Length  Movie Size      Disc Size       Bitrate Bitrate Main Audio Track                          Secondary Audio Track
-----                                                           ------  ------- --------------  --------------  ------- ------- ------------------                        ---------------------
01002.MPLS                                                      AVC     0:52:59 14 321 682 432  35 979 622 434  36,04   12,14   Dolby TrueHD 5.1 7041Kbps (96kHz/24-bit)  Dolby TrueHD 5.1 6865Kbps (96kHz/24-bit)

Код:
Код:
DISC INFO:
Disc Title:
Disc Size:      35 979 622 434 bytes
Protection:     AACS
BD-Java:        Yes
BDInfo:         0.5.3
PLAYLIST REPORT:
Name:                   01002.MPLS
Length:                 0:52:59 (h:m:s)
Size:                   14 321 682 432 bytes
Total Bitrate:          36,04 Mbps
VIDEO:
Codec                   Bitrate             Description
-----                   -------             -----------
MPEG-4 AVC Video        12136 kbps          720p / 59,940 fps / 16:9 / High Profile 4.0
AUDIO:
Codec                           Language        Bitrate         Description
-----                           --------        -------         -----------
Dolby TrueHD Audio              English         7041 kbps       5.1 / 96 kHz / 7041 kbps / 24-bit (AC3 Embedded: 5.1 / 48 kHz / 640 kbps)
Dolby TrueHD Audio              English         6865 kbps       5.1 / 96 kHz / 6865 kbps / 24-bit (AC3 Embedded: 5.1 / 48 kHz / 640 kbps)
LPCM Audio                      English         4608 kbps       2.0 / 96 kHz / 4608 kbps / 24-bit
FILES:
Name            Time In         Length          Size            Total Bitrate
----            -------         ------          ----            -------------
00004.M2TS      0:00:00.000     0:52:59.042     14 321 682 432  36 040
CHAPTERS:
Number          Time In         Length          Avg Video Rate  Max 1-Sec Rate  Max 1-Sec Time  Max 5-Sec Rate  Max 5-Sec Time  Max 10Sec Rate  Max 10Sec Time  Avg Frame Size  Max Frame Size  Max Frame Time
------          -------         ------          --------------  --------------  --------------  --------------  --------------  --------------  --------------  --------------  --------------  --------------
1               0:00:00.000     0:00:18.218     7 243 kbps      17 639 kbps     00:00:13.546    14 073 kbps     00:00:12.662    10 579 kbps     00:00:07.907    15 090 bytes    139 907 bytes   00:00:15.482
2               0:00:18.218     0:04:46.085     12 174 kbps     19 224 kbps     00:04:24.314    14 358 kbps     00:04:24.314    13 375 kbps     00:04:24.314    25 387 bytes    249 148 bytes   00:01:55.615
3               0:05:04.304     0:03:18.798     12 325 kbps     17 079 kbps     00:07:42.261    13 981 kbps     00:07:41.611    13 124 kbps     00:07:41.677    25 703 bytes    237 887 bytes   00:06:15.942
4               0:08:23.102     0:02:47.083     12 325 kbps     15 534 kbps     00:09:06.229    13 396 kbps     00:09:06.045    12 886 kbps     00:09:06.062    25 702 bytes    245 553 bytes   00:09:15.121
5               0:11:10.186     0:04:03.126     12 179 kbps     19 301 kbps     00:12:09.128    14 393 kbps     00:13:54.717    13 337 kbps     00:12:37.873    25 399 bytes    245 522 bytes   00:15:09.909
6               0:15:13.312     0:07:39.025     12 327 kbps     16 177 kbps     00:21:06.882    13 452 kbps     00:15:24.740    12 911 kbps     00:15:24.740    25 707 bytes    236 385 bytes   00:15:18.317
7               0:22:52.337     0:04:12.619     12 325 kbps     14 852 kbps     00:25:19.634    12 921 kbps     00:26:50.759    12 662 kbps     00:26:02.043    25 702 bytes    223 956 bytes   00:23:53.098
8               0:27:04.956     0:02:20.306     12 292 kbps     16 698 kbps     00:29:02.957    14 098 kbps     00:29:02.757    13 341 kbps     00:29:02.824    25 634 bytes    236 270 bytes   00:28:00.378
9               0:29:25.263     0:01:55.949     12 322 kbps     15 248 kbps     00:30:05.737    13 058 kbps     00:30:04.552    12 648 kbps     00:30:53.835    25 697 bytes    223 038 bytes   00:30:25.890
10              0:31:21.212     0:01:58.802     12 301 kbps     17 285 kbps     00:31:38.546    14 280 kbps     00:33:03.731    13 294 kbps     00:33:03.398    25 652 bytes    230 518 bytes   00:32:29.113
11              0:33:20.014     0:02:05.024     12 334 kbps     14 699 kbps     00:35:11.843    13 130 kbps     00:33:33.494    12 703 kbps     00:33:29.824    25 721 bytes    230 266 bytes   00:34:40.578
12              0:35:25.039     0:02:32.152     12 323 kbps     16 542 kbps     00:36:27.034    13 371 kbps     00:36:16.491    12 843 kbps     00:36:26.200    25 699 bytes    221 494 bytes   00:36:27.051
13              0:37:57.191     0:07:17.053     12 269 kbps     18 511 kbps     00:39:46.667    14 302 kbps     00:42:20.704    13 417 kbps     00:40:16.030    25 586 bytes    237 447 bytes   00:40:45.876
14              0:45:14.244     0:02:03.873     12 323 kbps     15 569 kbps     00:46:10.017    13 048 kbps     00:46:06.480    12 695 kbps     00:45:48.295    25 699 bytes    220 198 bytes   00:47:07.291
15              0:47:18.118     0:01:53.029     12 330 kbps     14 494 kbps     00:48:11.071    12 842 kbps     00:47:21.255    12 626 kbps     00:47:20.921    25 713 bytes    230 715 bytes   00:48:02.679
16              0:49:11.148     0:01:53.046     12 320 kbps     15 317 kbps     00:50:16.963    12 928 kbps     00:49:48.635    12 602 kbps     00:49:45.098    25 693 bytes    220 692 bytes   00:51:02.559
17              0:51:04.194     0:01:20.997     12 244 kbps     15 081 kbps     00:51:57.397    13 154 kbps     00:51:49.623    12 898 kbps     00:51:48.822    25 533 bytes    238 546 bytes   00:51:24.147
18              0:52:25.192     0:00:33.850     712 kbps        2 270 kbps      00:52:26.927    1 259 kbps      00:52:38.738    1 080 kbps      00:52:36.169    1 487 bytes     64 751 bytes    00:52:39.473
STREAM DIAGNOSTICS:
File            PID             Type            Codec           Language                Seconds                 Bitrate                 Bytes           Packets
----            ---             ----            -----           --------                --------------          --------------          -------------   -----
00004.M2TS      4113 (0x1011)   0x1B            AVC                                     3179,009                12 136                  4 822 480 243   26 319 676
00004.M2TS      4352 (0x1100)   0x83            TrueHD          eng (English)           3179,009                7 681                   3 052 208 834   19 133 803
00004.M2TS      4353 (0x1101)   0x83            TrueHD          eng (English)           3179,009                7 505                   2 982 304 186   18 716 732
00004.M2TS      4354 (0x1102)   0x80            LPCM            eng (English)           3179,009                4 614                   1 833 671 556   10 172 936

<---- END FORUMS PASTE ---->
QUICK SUMMARY:
Disc Title:
Disc Size: 35 979 622 434 bytes
Protection: AACS
BD-Java: Yes
Playlist: 01002.MPLS
Size: 14 321 682 432 bytes
Length: 0:52:59
Total Bitrate: 36,04 Mbps
Video: MPEG-4 AVC Video / 12136 kbps / 720p / 59,940 fps / 16:9 / High Profile 4.0
Audio: English / Dolby TrueHD Audio / 5.1 / 96 kHz / 7041 kbps / 24-bit (AC3 Embedded: 5.1 / 48 kHz / 640 kbps)
Audio: English / Dolby TrueHD Audio / 5.1 / 96 kHz / 6865 kbps / 24-bit (AC3 Embedded: 5.1 / 48 kHz / 640 kbps)
Audio: English / LPCM Audio / 2.0 / 96 kHz / 4608 kbps / 24-bit
********************
PLAYLIST: 00001.MPLS
********************
<--- BEGIN FORUMS PASTE --->Код:
Код:
Total   Video
Title                                                           Codec   Length  Movie Size      Disc Size       Bitrate Bitrate Main Audio Track                          Secondary Audio Track
-----                                                           ------  ------- --------------  --------------  ------- ------- ------------------                        ---------------------
00001.MPLS                                                      AVC     0:03:05 534 417 408     35 979 622 434  23,07   12,31   Dolby TrueHD 5.1 442Kbps (96kHz/16-bit)   Dolby TrueHD 5.1 442Kbps (96kHz/16-bit)

Код:
Код:
DISC INFO:
Disc Title:
Disc Size:      35 979 622 434 bytes
Protection:     AACS
BD-Java:        Yes
BDInfo:         0.5.3
PLAYLIST REPORT:
Name:                   00001.MPLS
Length:                 0:03:05 (h:m:s)
Size:                   534 417 408 bytes
Total Bitrate:          23,07 Mbps
VIDEO:
Codec                   Bitrate             Description
-----                   -------             -----------
MPEG-4 AVC Video        12310 kbps          720p / 59,940 fps / 16:9 / High Profile 4.0
AUDIO:
Codec                           Language        Bitrate         Description
-----                           --------        -------         -----------
Dolby TrueHD Audio              English         442 kbps        5.1 / 96 kHz / 442 kbps / 16-bit (AC3 Embedded: 5.1 / 48 kHz / 640 kbps)
Dolby TrueHD Audio              English         442 kbps        5.1 / 96 kHz / 442 kbps / 16-bit (AC3 Embedded: 5.1 / 48 kHz / 640 kbps)
LPCM Audio                      English         4608 kbps       2.0 / 96 kHz / 4608 kbps / 24-bit
FILES:
Name            Time In         Length          Size            Total Bitrate
----            -------         ------          ----            -------------
00002.M2TS      0:00:00.000     0:03:05.301     534 417 408     23 072
CHAPTERS:
Number          Time In         Length          Avg Video Rate  Max 1-Sec Rate  Max 1-Sec Time  Max 5-Sec Rate  Max 5-Sec Time  Max 10Sec Rate  Max 10Sec Time  Avg Frame Size  Max Frame Size  Max Frame Time
------          -------         ------          --------------  --------------  --------------  --------------  --------------  --------------  --------------  --------------  --------------  --------------
1               0:00:00.000     0:03:05.301     12 310 kbps     19 496 kbps     00:02:39.993    14 220 kbps     00:02:40.026    13 207 kbps     00:00:04.654    25 672 bytes    151 555 bytes   00:02:33.553
STREAM DIAGNOSTICS:
File            PID             Type            Codec           Language                Seconds                 Bitrate                 Bytes           Packets
----            ---             ----            -----           --------                --------------          --------------          -------------   -----
00002.M2TS      4113 (0x1011)   0x1B            AVC                                     185,252                 12 314                  285 139 608     1 556 217
00002.M2TS      4352 (0x1100)   0x83            TrueHD          eng (English)           185,252                 1 083                   25 067 222      309 399
00002.M2TS      4353 (0x1101)   0x83            TrueHD          eng (English)           185,252                 1 083                   25 067 222      309 399
00002.M2TS      4354 (0x1102)   0x80            LPCM            eng (English)           185,252                 4 619                   106 949 092     593 338

<---- END FORUMS PASTE ---->
QUICK SUMMARY:
Disc Title:
Disc Size: 35 979 622 434 bytes
Protection: AACS
BD-Java: Yes
Playlist: 00001.MPLS
Size: 534 417 408 bytes
Length: 0:03:05
Total Bitrate: 23,07 Mbps
Video: MPEG-4 AVC Video / 12310 kbps / 720p / 59,940 fps / 16:9 / High Profile 4.0
Audio: English / Dolby TrueHD Audio / 5.1 / 96 kHz / 442 kbps / 16-bit (AC3 Embedded: 5.1 / 48 kHz / 640 kbps)
Audio: English / Dolby TrueHD Audio / 5.1 / 96 kHz / 442 kbps / 16-bit (AC3 Embedded: 5.1 / 48 kHz / 640 kbps)
Audio: English / LPCM Audio / 2.0 / 96 kHz / 4608 kbps / 24-bit
********************
PLAYLIST: 01001.MPLS
********************
<--- BEGIN FORUMS PASTE --->Код:
Код:
Total   Video
Title                                                           Codec   Length  Movie Size      Disc Size       Bitrate Bitrate Main Audio Track                          Secondary Audio Track
-----                                                           ------  ------- --------------  --------------  ------- ------- ------------------                        ---------------------
01001.MPLS                                                      AVC     0:03:05 534 417 408     35 979 622 434  23,07   12,31   Dolby TrueHD 5.1 442Kbps (96kHz/16-bit)   Dolby TrueHD 5.1 442Kbps (96kHz/16-bit)

Код:
Код:
DISC INFO:
Disc Title:
Disc Size:      35 979 622 434 bytes
Protection:     AACS
BD-Java:        Yes
BDInfo:         0.5.3
PLAYLIST REPORT:
Name:                   01001.MPLS
Length:                 0:03:05 (h:m:s)
Size:                   534 417 408 bytes
Total Bitrate:          23,07 Mbps
VIDEO:
Codec                   Bitrate             Description
-----                   -------             -----------
MPEG-4 AVC Video        12310 kbps          720p / 59,940 fps / 16:9 / High Profile 4.0
AUDIO:
Codec                           Language        Bitrate         Description
-----                           --------        -------         -----------
Dolby TrueHD Audio              English         442 kbps        5.1 / 96 kHz / 442 kbps / 16-bit (AC3 Embedded: 5.1 / 48 kHz / 640 kbps)
Dolby TrueHD Audio              English         442 kbps        5.1 / 96 kHz / 442 kbps / 16-bit (AC3 Embedded: 5.1 / 48 kHz / 640 kbps)
LPCM Audio                      English         4608 kbps       2.0 / 96 kHz / 4608 kbps / 24-bit
FILES:
Name            Time In         Length          Size            Total Bitrate
----            -------         ------          ----            -------------
00002.M2TS      0:00:00.000     0:03:05.301     534 417 408     23 072
CHAPTERS:
Number          Time In         Length          Avg Video Rate  Max 1-Sec Rate  Max 1-Sec Time  Max 5-Sec Rate  Max 5-Sec Time  Max 10Sec Rate  Max 10Sec Time  Avg Frame Size  Max Frame Size  Max Frame Time
------          -------         ------          --------------  --------------  --------------  --------------  --------------  --------------  --------------  --------------  --------------  --------------
1               0:00:00.000     0:00:01.234     10 701 kbps     9 931 kbps      00:00:00.233    0 kbps          00:00:00.000    0 kbps          00:00:00.000    22 018 bytes    118 507 bytes   00:00:00.000
2               0:00:01.234     0:03:04.067     12 321 kbps     19 496 kbps     00:02:39.993    14 220 kbps     00:02:40.026    13 207 kbps     00:00:04.654    25 697 bytes    151 555 bytes   00:02:33.553
STREAM DIAGNOSTICS:
File            PID             Type            Codec           Language                Seconds                 Bitrate                 Bytes           Packets
----            ---             ----            -----           --------                --------------          --------------          -------------   -----
00002.M2TS      4113 (0x1011)   0x1B            AVC                                     185,252                 12 314                  285 139 608     1 556 217
00002.M2TS      4352 (0x1100)   0x83            TrueHD          eng (English)           185,252                 1 083                   25 067 222      309 399
00002.M2TS      4353 (0x1101)   0x83            TrueHD          eng (English)           185,252                 1 083                   25 067 222      309 399
00002.M2TS      4354 (0x1102)   0x80            LPCM            eng (English)           185,252                 4 619                   106 949 092     593 338

<---- END FORUMS PASTE ---->
QUICK SUMMARY:
Disc Title:
Disc Size: 35 979 622 434 bytes
Protection: AACS
BD-Java: Yes
Playlist: 01001.MPLS
Size: 534 417 408 bytes
Length: 0:03:05
Total Bitrate: 23,07 Mbps
Video: MPEG-4 AVC Video / 12310 kbps / 720p / 59,940 fps / 16:9 / High Profile 4.0
Audio: English / Dolby TrueHD Audio / 5.1 / 96 kHz / 442 kbps / 16-bit (AC3 Embedded: 5.1 / 48 kHz / 640 kbps)
Audio: English / Dolby TrueHD Audio / 5.1 / 96 kHz / 442 kbps / 16-bit (AC3 Embedded: 5.1 / 48 kHz / 640 kbps)
Audio: English / LPCM Audio / 2.0 / 96 kHz / 4608 kbps / 24-bit
********************
PLAYLIST: 00003.MPLS
********************
<--- BEGIN FORUMS PASTE --->Код:
Код:
Total   Video
Title                                                           Codec   Length  Movie Size      Disc Size       Bitrate Bitrate Main Audio Track                          Secondary Audio Track
-----                                                           ------  ------- --------------  --------------  ------- ------- ------------------                        ---------------------
00003.MPLS                                                      AVC     0:01:32 204 668 928     35 979 622 434  17,69   12,60   Dolby TrueHD 5.1 2539Kbps (96kHz/16-bit)

Код:
Код:
DISC INFO:
Disc Title:
Disc Size:      35 979 622 434 bytes
Protection:     AACS
BD-Java:        Yes
BDInfo:         0.5.3
PLAYLIST REPORT:
Name:                   00003.MPLS
Length:                 0:01:32 (h:m:s)
Size:                   204 668 928 bytes
Total Bitrate:          17,69 Mbps
VIDEO:
Codec                   Bitrate             Description
-----                   -------             -----------
MPEG-4 AVC Video        12596 kbps          720p / 59,940 fps / 16:9 / High Profile 4.0
AUDIO:
Codec                           Language        Bitrate         Description
-----                           --------        -------         -----------
Dolby TrueHD Audio              English         2539 kbps       5.1 / 96 kHz / 2539 kbps / 16-bit (AC3 Embedded: 5.1 / 48 kHz / 448 kbps)
FILES:
Name            Time In         Length          Size            Total Bitrate
----            -------         ------          ----            -------------
00006.M2TS      0:00:00.000     0:01:32.542     204 668 928     17 693
CHAPTERS:
Number          Time In         Length          Avg Video Rate  Max 1-Sec Rate  Max 1-Sec Time  Max 5-Sec Rate  Max 5-Sec Time  Max 10Sec Rate  Max 10Sec Time  Avg Frame Size  Max Frame Size  Max Frame Time
------          -------         ------          --------------  --------------  --------------  --------------  --------------  --------------  --------------  --------------  --------------  --------------
1               0:00:00.000     0:01:32.542     12 596 kbps     16 274 kbps     00:00:53.486    13 907 kbps     00:00:49.015    13 408 kbps     00:00:48.748    26 269 bytes    147 764 bytes   00:00:53.903
STREAM DIAGNOSTICS:
File            PID             Type            Codec           Language                Seconds                 Bitrate                 Bytes           Packets
----            ---             ----            -----           --------                --------------          --------------          -------------   -----
00006.M2TS      4113 (0x1011)   0x1B            AVC                                     92,509                  12 601                  145 711 520     795 150
00006.M2TS      4352 (0x1100)   0x83            TrueHD          eng (English)           92,509                  2 988                   34 553 440      263 104

<---- END FORUMS PASTE ---->
QUICK SUMMARY:
Disc Title:
Disc Size: 35 979 622 434 bytes
Protection: AACS
BD-Java: Yes
Playlist: 00003.MPLS
Size: 204 668 928 bytes
Length: 0:01:32
Total Bitrate: 17,69 Mbps
Video: MPEG-4 AVC Video / 12596 kbps / 720p / 59,940 fps / 16:9 / High Profile 4.0
Audio: English / Dolby TrueHD Audio / 5.1 / 96 kHz / 2539 kbps / 16-bit (AC3 Embedded: 5.1 / 48 kHz / 448 kbps)
********************
PLAYLIST: 01003.MPLS
********************
<--- BEGIN FORUMS PASTE --->Код:
Код:
Total   Video
Title                                                           Codec   Length  Movie Size      Disc Size       Bitrate Bitrate Main Audio Track                          Secondary Audio Track
-----                                                           ------  ------- --------------  --------------  ------- ------- ------------------                        ---------------------
01003.MPLS                                                      AVC     0:01:32 204 668 928     35 979 622 434  17,69   12,60   Dolby TrueHD 5.1 2539Kbps (96kHz/16-bit)

Код:
Код:
DISC INFO:
Disc Title:
Disc Size:      35 979 622 434 bytes
Protection:     AACS
BD-Java:        Yes
BDInfo:         0.5.3
PLAYLIST REPORT:
Name:                   01003.MPLS
Length:                 0:01:32 (h:m:s)
Size:                   204 668 928 bytes
Total Bitrate:          17,69 Mbps
VIDEO:
Codec                   Bitrate             Description
-----                   -------             -----------
MPEG-4 AVC Video        12596 kbps          720p / 59,940 fps / 16:9 / High Profile 4.0
AUDIO:
Codec                           Language        Bitrate         Description
-----                           --------        -------         -----------
Dolby TrueHD Audio              English         2539 kbps       5.1 / 96 kHz / 2539 kbps / 16-bit (AC3 Embedded: 5.1 / 48 kHz / 448 kbps)
FILES:
Name            Time In         Length          Size            Total Bitrate
----            -------         ------          ----            -------------
00006.M2TS      0:00:00.000     0:01:32.542     204 668 928     17 693
CHAPTERS:
Number          Time In         Length          Avg Video Rate  Max 1-Sec Rate  Max 1-Sec Time  Max 5-Sec Rate  Max 5-Sec Time  Max 10Sec Rate  Max 10Sec Time  Avg Frame Size  Max Frame Size  Max Frame Time
------          -------         ------          --------------  --------------  --------------  --------------  --------------  --------------  --------------  --------------  --------------  --------------
1               0:00:00.000     0:01:32.542     12 596 kbps     16 274 kbps     00:00:53.486    13 907 kbps     00:00:49.015    13 408 kbps     00:00:48.748    26 269 bytes    147 764 bytes   00:00:53.903
STREAM DIAGNOSTICS:
File            PID             Type            Codec           Language                Seconds                 Bitrate                 Bytes           Packets
----            ---             ----            -----           --------                --------------          --------------          -------------   -----
00006.M2TS      4113 (0x1011)   0x1B            AVC                                     92,509                  12 601                  145 711 520     795 150
00006.M2TS      4352 (0x1100)   0x83            TrueHD          eng (English)           92,509                  2 988                   34 553 440      263 104

<---- END FORUMS PASTE ---->
QUICK SUMMARY:
Disc Title:
Disc Size: 35 979 622 434 bytes
Protection: AACS
BD-Java: Yes
Playlist: 01003.MPLS
Size: 204 668 928 bytes
Length: 0:01:32
Total Bitrate: 17,69 Mbps
Video: MPEG-4 AVC Video / 12596 kbps / 720p / 59,940 fps / 16:9 / High Profile 4.0
Audio: English / Dolby TrueHD Audio / 5.1 / 96 kHz / 2539 kbps / 16-bit (AC3 Embedded: 5.1 / 48 kHz / 448 kbps)
********************
PLAYLIST: 00004.MPLS
********************
<--- BEGIN FORUMS PASTE --->Код:
Код:
Total   Video
Title                                                           Codec   Length  Movie Size      Disc Size       Bitrate Bitrate Main Audio Track                          Secondary Audio Track
-----                                                           ------  ------- --------------  --------------  ------- ------- ------------------                        ---------------------
00004.MPLS                                                      AVC     0:00:32 73 003 008      35 979 622 434  18,22   12,57   LPCM 2.0 4608Kbps (96kHz/24-bit)

Код:
Код:
DISC INFO:
Disc Title:
Disc Size:      35 979 622 434 bytes
Protection:     AACS
BD-Java:        Yes
BDInfo:         0.5.3
PLAYLIST REPORT:
Name:                   00004.MPLS
Length:                 0:00:32 (h:m:s)
Size:                   73 003 008 bytes
Total Bitrate:          18,22 Mbps
VIDEO:
Codec                   Bitrate             Description
-----                   -------             -----------
MPEG-4 AVC Video        12572 kbps          720p / 59,940 fps / 16:9 / High Profile 4.0
AUDIO:
Codec                           Language        Bitrate         Description
-----                           --------        -------         -----------
LPCM Audio                      English         4608 kbps       2.0 / 96 kHz / 4608 kbps / 24-bit
FILES:
Name            Time In         Length          Size            Total Bitrate
----            -------         ------          ----            -------------
00008.M2TS      0:00:00.000     0:00:32.048     73 003 008      18 223
CHAPTERS:
Number          Time In         Length          Avg Video Rate  Max 1-Sec Rate  Max 1-Sec Time  Max 5-Sec Rate  Max 5-Sec Time  Max 10Sec Rate  Max 10Sec Time  Avg Frame Size  Max Frame Size  Max Frame Time
------          -------         ------          --------------  --------------  --------------  --------------  --------------  --------------  --------------  --------------  --------------  --------------
1               0:00:00.000     0:00:32.048     12 572 kbps     15 860 kbps     00:00:04.688    13 450 kbps     00:00:04.738    13 141 kbps     00:00:04.738    26 219 bytes    133 037 bytes   00:00:05.221
STREAM DIAGNOSTICS:
File            PID             Type            Codec           Language                Seconds                 Bitrate                 Bytes           Packets
----            ---             ----            -----           --------                --------------          --------------          -------------   -----
00008.M2TS      4113 (0x1011)   0x1B            AVC                                     32,015                  12 585                  50 366 029      274 863
00008.M2TS      4352 (0x1100)   0x80            LPCM            eng (English)           32,015                  4 607                   18 437 572      102 289

<---- END FORUMS PASTE ---->
QUICK SUMMARY:
Disc Title:
Disc Size: 35 979 622 434 bytes
Protection: AACS
BD-Java: Yes
Playlist: 00004.MPLS
Size: 73 003 008 bytes
Length: 0:00:32
Total Bitrate: 18,22 Mbps
Video: MPEG-4 AVC Video / 12572 kbps / 720p / 59,940 fps / 16:9 / High Profile 4.0
Audio: English / LPCM Audio / 2.0 / 96 kHz / 4608 kbps / 24-bit
********************
PLAYLIST: 01004.MPLS
********************
<--- BEGIN FORUMS PASTE --->Код:
Код:
Total   Video
Title                                                           Codec   Length  Movie Size      Disc Size       Bitrate Bitrate Main Audio Track                          Secondary Audio Track
-----                                                           ------  ------- --------------  --------------  ------- ------- ------------------                        ---------------------
01004.MPLS                                                      AVC     0:00:32 73 003 008      35 979 622 434  18,22   12,57   LPCM 2.0 4608Kbps (96kHz/24-bit)

Код:
Код:
DISC INFO:
Disc Title:
Disc Size:      35 979 622 434 bytes
Protection:     AACS
BD-Java:        Yes
BDInfo:         0.5.3
PLAYLIST REPORT:
Name:                   01004.MPLS
Length:                 0:00:32 (h:m:s)
Size:                   73 003 008 bytes
Total Bitrate:          18,22 Mbps
VIDEO:
Codec                   Bitrate             Description
-----                   -------             -----------
MPEG-4 AVC Video        12572 kbps          720p / 59,940 fps / 16:9 / High Profile 4.0
AUDIO:
Codec                           Language        Bitrate         Description
-----                           --------        -------         -----------
LPCM Audio                      English         4608 kbps       2.0 / 96 kHz / 4608 kbps / 24-bit
FILES:
Name            Time In         Length          Size            Total Bitrate
----            -------         ------          ----            -------------
00008.M2TS      0:00:00.000     0:00:32.048     73 003 008      18 223
CHAPTERS:
Number          Time In         Length          Avg Video Rate  Max 1-Sec Rate  Max 1-Sec Time  Max 5-Sec Rate  Max 5-Sec Time  Max 10Sec Rate  Max 10Sec Time  Avg Frame Size  Max Frame Size  Max Frame Time
------          -------         ------          --------------  --------------  --------------  --------------  --------------  --------------  --------------  --------------  --------------  --------------
1               0:00:00.000     0:00:32.048     12 572 kbps     15 860 kbps     00:00:04.688    13 450 kbps     00:00:04.738    13 141 kbps     00:00:04.738    26 219 bytes    133 037 bytes   00:00:05.221
STREAM DIAGNOSTICS:
File            PID             Type            Codec           Language                Seconds                 Bitrate                 Bytes           Packets
----            ---             ----            -----           --------                --------------          --------------          -------------   -----
00008.M2TS      4113 (0x1011)   0x1B            AVC                                     32,015                  12 585                  50 366 029      274 863
00008.M2TS      4352 (0x1100)   0x80            LPCM            eng (English)           32,015                  4 607                   18 437 572      102 289

<---- END FORUMS PASTE ---->
QUICK SUMMARY:
Disc Title:
Disc Size: 35 979 622 434 bytes
Protection: AACS
BD-Java: Yes
Playlist: 01004.MPLS
Size: 73 003 008 bytes
Length: 0:00:32
Total Bitrate: 18,22 Mbps
Video: MPEG-4 AVC Video / 12572 kbps / 720p / 59,940 fps / 16:9 / High Profile 4.0
Audio: English / LPCM Audio / 2.0 / 96 kHz / 4608 kbps / 24-bit
Скриншоты




реклама партнёра


Вернуться к началу
 Профиль Отправить личное сообщение  
 
   Похожие торренты   Автор   Торрент   Размер 
В этой теме нет новых непрочитанных сообщений. Amber Lynn Bach (151 ролик) (Busty Amber, AmberLynn Bach, Amber Bach, Amber at Home) MegaPack / Американская богиня MILF! [2002-2016, Hardcore, Anal, Interracial, Milf, Big Tits, Lesbo, Facial]

salma3

10 | 3

41.87 ГБ

В этой теме нет новых непрочитанных сообщений. [FirstTimeAuditions.com / RealityKings.com] Amy Parks - Amy Parks And Sex (26.10.2017) [Amateur, Blowjob, Sex, Finger Banging, Cum Shot, Masturbation, Anal Play, Pile Driving, Anal Fingering, Clean-up, Facial]

salma3

18 | 6

307.69 МБ

В этой теме нет новых непрочитанных сообщений. [FirstTimeAuditions.com / RealityKings.com] Amy Parks (Amy Parks And Sex) [2017 г., Amateur, Blowjob, Sex, Finger Banging, Cum Shot, Masturbation, Anal Play, Pile Driving, Anal Fingering, Clean-up, Facial, 1080p]

salma3

5 | 1

2.71 ГБ

В этой теме нет новых непрочитанных сообщений. [Analized.com] Trisha Parks - Trisha Parks Anal Wake Up (05.12.2017) [2017 г., Anal, Athletic, Blondes, Facial, Great Ass, Natural, Petite, Roleplay, Shaved Pussy, 480p]

salma3

38 | 13

681.63 МБ

В этой теме нет новых непрочитанных сообщений. La Toya Lopez (11) (La Toia, Latoja Lopez) MiniPack [Anal, Facial, Busty, Big Tits, Mature, MILF, European]

salma3

5 | 1

1.63 ГБ

В этой теме нет новых непрочитанных сообщений. Rayann Parks / Shaved Smooth Pussy (2015) HD 720p

Dile-1

0 | 15

318.09 МБ

В этой теме нет новых непрочитанных сообщений. Кевин и Перри уделывают всех / Kevin & Perry Go Large [комедия, музыка, 2000] WEB-DLRip, Mvo

salma3

39 | 6

1.46 ГБ


Начать новую тему Ответить на тему  [ 1 сообщение ] 




Для Мосгорсуда, Роскомнадзора и рекламодателей:: mosgorsud-torrent[собачка]yandex.ru