COVID-19 - Последняя информация о коронавирусе на сайте Минздрава




Торрент файл
скачать торрент магнет ссылка Добавлен: 07 окт 2012, 21:30
Размер: 26.94 ГБ
Сидеров: 5
Личеров: 5
Автор

СообщениеДобавлено: 07 окт 2012, 21:30 

Не в сети
Аватара пользователя
Дата регистрации:
28 ноя 2010, 22:22
Спасибо: 722 / 5
Сообщения: 2030
Scorpions: Live - Get Your Sting & Blackout

Год выпуска: 2011
Студия: Sony Music
Жанр: Rock
Продолжительность: 01:53:59
Перевод: Отсутствует
Русские субтитры: нет
Описание: Немецкая группа Скорпионс, ветераны рока, представляют концерт "Get Your Sting & Blackout - Live In 3D" на Blu-ray при содействии компании Sony. Диск содержит запись концерта 15 апреля 2011 в Саарбрюкен, Германия снятый с использованием последних технологий 3D, одинадцатью камерами, звуком 5.1.
Треклист:
01. Intro
02. Sting In The Tail
03. Make It Real
04. Bad Boys Running Wild
05. The Zoo
06. Coast To Coast
07. Loving You Sunday Morning
08. The Best Is Yet To Come
09. Send Me An Angel
10. Holiday
11. Raised On Rock
12. Tease Me Please Me
13. Dynamite
14. Kottak Attack
15. Blackout
16. Six String Sting
17. Big City Nights
18. Still Loving You
19. Wind Of Change
20. Rock You Like A Hurricane
21. When The Smoke Is Going Down
На встроенных ТВ-плейерах работать не будет!!!
Качество: BDrip
Контейнер: MKV
Формат 3D: OverUnder / Вертикальная стереопара
Порядок ракурсов: левый ракурс первый
Видео кодек: x264
Аудио кодек: DTS
Видео: AVC / 1920х2160 / 23,976 кадр/сек / 31,0 Мбит/сек
Аудио: Английский / DTS / 48 KHz / 5.1 ch / 1510 Kbps
MediaInfo
General
Complete name : D:\3D Концерты\Scorpions Live - Get Your Sting & Blackout.mkv
Format : Matroska
File size : 26.9 GiB
Duration : 1h 53mn
Overall bit rate : 33.8 Mbps
Movie name : Scorpions.Live.In.3D.DTS-HD.H-SBS.x264.1080p.-.MovieFan
Encoded date : UTC 2012-01-10 20:15:29
Writing application : mkvmerge v3.4.0 ('Rapunzel') сборка от May 15 2010 09:38:20
Writing library : libebml v0.8.0 + libmatroska v0.9.0
Video
ID : 1
Format : AVC
Format/Info : Advanced Video Codec
Format profile : High@L5.0
Format settings, CABAC : Yes
Format settings, ReFrames : 5 frames
Muxing mode : Container profile=Unknown@5.0
Codec ID : V_MPEG4/ISO/AVC
Duration : 1h 53mn
Bit rate : 31.7 Mbps
Width : 1 920 pixels
Height : 2 160 pixels
Display aspect ratio : 0.889
Frame rate : 23.976 fps
Color space : YUV
Chroma subsampling : 4:2:0
Bit depth : 8 bits
Scan type : Progressive
Bits/(Pixel*Frame) : 0.318
Stream size : 25.2 GiB (94%)
Writing library : x264 core 119 r2106 07efeb4
Encoding settings : cabac=1 / ref=5 / deblock=1:-1:-1 / analyse=0x3:0x113 / me=umh / subme=9 / psy=1 / psy_rd=1.00:0.15 / mixed_ref=1 / me_range=16 / chroma_me=1 / trellis=2 / 8x8dct=1 / cqm=0 / deadzone=21,11 / fast_pskip=1 / chroma_qp_offset=-3 / threads=6 / sliced_threads=0 / nr=0 / decimate=1 / interlaced=0 / bluray_compat=0 / constrained_intra=0 / bframes=4 / b_pyramid=2 / b_adapt=1 / b_bias=0 / direct=3 / weightb=1 / open_gop=0 / weightp=2 / keyint=250 / keyint_min=23 / scenecut=40 / intra_refresh=0 / rc_lookahead=40 / rc=crf / mbtree=1 / crf=18.0 / qcomp=0.60 / qpmin=10 / qpmax=69 / qpstep=4 / ip_ratio=1.40 / aq=1:1.00
Audio
ID : 2
Format : DTS
Format/Info : Digital Theater Systems
Codec ID : A_DTS
Duration : 1h 53mn
Bit rate mode : Constant
Bit rate : 1 510 Kbps
Channel(s) : 6 channels
Channel positions : Front: L C R, Side: L R, LFE
Sampling rate : 48.0 KHz
Bit depth : 24 bits
Stream size : 1.20 GiB (4%)
Language : English
Скриншоты
Мои 3D релизы в полноразмере
3D КинофильмыГарри Поттер и Дары смерти: Часть I / Harry Potter and the Deathly Hallows: Part 1Гарри Поттер и Дары смерти: Часть II / Harry Potter and the Deathly Hallows: Part 2Территория тьмы / Dark CountryПункт назначения 5 / Final Destination 5Путешествие к Центру Земли / Journey to the Center of the EarthТрансформеры 3: Тёмная сторона Луны / Transformers: Dark of the MoonПираты Карибского моря: На странных берегах / Pirates of the Caribbean: On Stranger TidesГробовщик / The MorticianВойна Богов: Бессмертные / ImmortalsГлаз ребенка / Child's Eye3D МультфильмыКошмар перед Рождеством / The Nightmare Before ChristmasИстория игрушек / Toy StoryИстория игрушек 2 / Toy Story 2История игрушек: Большой побег / Toy Story 3Теккен: Кровная месть / Tekken: Blood VengeanceСезон охоты / Open SeasonРонал-варвар / Ronal BarbarenЗвёздные собаки: Белка и СтрелкаИван Царевич и Серый Волк3D Музыкальные клипы, КонцертыScorpions: Live - Get Your Sting & BlackoutKenny Chesney: SummerЛунный свет / Lichtmond3D Документальные фильмыВолшебный лес / Magic forestСерфинг на Таити / The Ultimate Wave: Tahiti - IMAXТростниковые жабы: Оккупация / Cane Toads: The ConquestТайвань вне времени / Timeless Taiwan Букашки! / Bugs! Вселенная: 7 чудес Солнечной системы / Universe: 7 Wonders of the Solar System Пещера забытых снов / Cave of Forgotten DreamsЛегенды неба / Legends of Flight



Скачать книги и аудио книги через торрент


Вернуться к началу
 Профиль Отправить личное сообщение  
 
   Похожие торренты   Автор   Торрент   Размер 
В этой теме нет новых непрочитанных сообщений. Рок-н-рольщик / RocknRolla [Боевик, триллер, криминал, 2008] BDRemux 1080p, Dub

salma3

0 | 0

22.13 ГБ

В этой теме нет новых непрочитанных сообщений. Резня на «Скале» / Рок на скотобойне / Slaughterhouse Rock [ужасы. комедия, 1988] BDRip, Avo

salma3

0 | 0

1.45 ГБ

В этой теме нет новых непрочитанных сообщений. Резня на «Скале» / Рок на скотобойне / Slaughterhouse Rock [ужасы, триллер, 1988] BDRip 720p, Avo

salma3

0 | 0

4.77 ГБ

В этой теме нет новых непрочитанных сообщений. Рок-убийца / Murderock - Uccide a passo di danza [ужасы, триллер, драма, 1984] BDRip, Avo

salma3

14 | 5

1.45 ГБ

В этой теме нет новых непрочитанных сообщений. Роковой выбор / Blackout [ужасы, триллер, детектив, 2008] BDRip 1080p, Dub

salma3

0 | 0

6.98 ГБ

В этой теме нет новых непрочитанных сообщений. Высшая школа рок-н-ролла / Rock-n- Roll High School [Комедия, Музыкальный, 1979] BDRip 720p, Avo

salma3

0 | 0

4.5 ГБ

В этой теме нет новых непрочитанных сообщений. Касл-Рок / Castle Rock [S02] [Ужасы, фэнтези, триллер, драма, детектив, 2019] WEBRip 1080p, Mvo [Profix Media]

Haint

0 | 0

20.86 ГБ


Начать новую тему Ответить на тему  [ 1 сообщение ] 




Для Мосгорсуда, Роскомнадзора и рекламодателей:: rstracker[собака]yandex.ru
cron