Торрент файл
скачать торрент магнет ссылка Добавлен: 07 окт 2012, 21:29
Размер: 762.18 МБ
Сидеров: 14
Личеров: 6
Автор

СообщениеДобавлено: 07 окт 2012, 21:29 

Не в сети
Аватара пользователя
Дата регистрации:
28 ноя 2010, 22:22
Спасибо: 722 / 5
Сообщения: 2030
ЦВЕТЫ, ЦВЕТОЧКИ 3D
Год выпуска: 2011
Страна: Россия
Жанр: Документальное любительское кино
Продолжительность: 0:06:17
Режиссёр: КИВ
Камера: Panasonic HDC-SDT750 - 3D
Перевод: Не требуется
Русские субтитры: нет
Описание: Фильм для любителей больших вылетов.
Цветы садовые,полевые. Хотелось показать как должна выглядеть объёмная картинка...
Фильм для любителей больших вылетов.

Воспроизведение:Воспроизводит фильм любой компъютерный плеер.
Качество: HDTV
Контейнер: M2TS (BDAV)
Формат 3D: Anamorph SideBySide / Горизонтальная анаморфная стереопара
Порядок ракурсов: левый ракурс первый
Видео кодек: MPEG-Video
Аудио кодек: AC-3
Видео: MPEG Video 15,9 Мбит/сек 1920 x 1080 (1.778) at 25.000 fps
Аудио: AC-3, 384 Кбит/сек, 6 каналов, 48,0 КГц,16 Бит
Скриншоты
Информация о файле
G:\Цветы,цветочки.m2t
General #0
ID : 0
Complete name : G:\Цветы,цветочки.m2t
Format : BDAV
Format/Info : Blu-ray Video
File size : 762 MiB
Duration : 6mn 17s
Overall bit rate : 16.9 Mbps
Maximum Overall bit rate : 23.0 Mbps
Video #4113
ID : 4113 (0x1011)
Menu ID : 1 (0x1)
Format : MPEG Video
Format version : Version 2
Format profile : Main@High
Format settings, BVOP : Yes
Format settings, Matrix : Default
Format settings, GOP : M=3, N=12
Duration : 6mn 17s
Bit rate mode : Variable
Bit rate : 15.9 Mbps
Nominal bit rate : 18.0 Mbps
Width : 1 920 pixels
Height : 1 080 pixels

Display aspect ratio : 16:9
Frame rate : 25.000 fps
Color space : YUV
Chroma subsampling : 4:2:0
Bit depth : 8 bits
Scan type : Interlaced
Scan order : Top Field First
Bits/(Pixel*Frame) : 0.306
Stream size : 714 MiB (94%)
Audio #4352
ID : 4352 (0x1100)
Menu ID : 1 (0x1)
Format : AC-3
Format/Info : Audio Coding 3
Mode extension : CM (complete main)
Duration : 6mn 17s
Bit rate mode : Constant
Bit rate : 384 Kbps
Channel(s) : 6 channels
Channel positions : Front: L C R, Side: L R, LFE
Sampling rate : 48.0 KHz
Bit depth : 16 bits
Stream size : 17.3 MiB (2%)
На встроенных ТВ-плейерах не работает.



Вернуться к началу
 Профиль Отправить личное сообщение  
 
   Похожие торренты   Автор   Торрент   Размер 
В этой теме нет новых непрочитанных сообщений. Пансионат Борегар / Beauregard [драма, 2009] HDTV 1080, Dvo

salma3

85 | 28

9.04 ГБ

В этой теме нет новых непрочитанных сообщений. Футбол. Лига Чемпионов 2017-18. Плей-офф. 1/8 финала. Манчестер Юнайтед (Англия) - Севилья (Испания). Ответный матч [13.03] (2018) HDTV 1080

salma3

0 | 0

8.44 ГБ

В этой теме нет новых непрочитанных сообщений. Цветы войны / The Flowers of War / Jin líng shí san chai [Драма, военный, история, экранизация, 2011] BDRemux 1080p, Dub

salma3

17 | 18

29.04 ГБ

В этой теме нет новых непрочитанных сообщений. Вход в никуда / Enter Nowhere [триллер, детектив, фантастика, 2011] BDRip 1080, Mvo

salma3

27 | 2

8.06 ГБ

В этой теме нет новых непрочитанных сообщений. Живая сталь / Real Steel [Фантастика, боевик, семейный, 2011] BDRip 1080, Dub

salma3

8 | 6

16.17 ГБ

В этой теме нет новых непрочитанных сообщений. Цветы дождя [01-08 из 08] [Мелодрама, 2017] SATRip-AVC

salma3

53 | 30

4.12 ГБ

В этой теме нет новых непрочитанных сообщений. Бумажные цветы [Мелодрама, 2016] WEB-DLRip

salma3

485 | 28

1.37 ГБ


Начать новую тему Ответить на тему  [ 1 сообщение ] 




Для Мосгорсуда, Роскомнадзора и рекламодателей:: mosgorsud-torrent[собачка]yandex.ru
cron