Торрент файл
скачать торрент магнет ссылка Добавлен: 07 окт 2012, 21:29
Размер: 1.23 ГБ
Сидеров: 4
Личеров: 4
Автор

СообщениеДобавлено: 07 окт 2012, 21:29 

Не в сети
Аватара пользователя
Дата регистрации:
28 ноя 2010, 22:22
Спасибо: 722 / 5
Сообщения: 2030
Свадьба 3D / Wedding Movie 3D / Авторское видео
Год выпуска: 2012
Страна: Россия
Жанр: Документально-развлекательный
Продолжительность: 00:11:33
Перевод: Не требуется
Русские субтитры: нет
Описание: Свадебный ролик в 3D моей свадьбы. Сделал сам, съёмки своей 3D видеокамерой. Работаю главбухом, так что будьте снисходительны к моей работе Ролик носит развлекательный и демонстрационный характер, а не повествовательный. В связи с тем, что на данный момент всё-таки имеется некоторый дефицит нового 3D-видео (новое появляется редко, а старое почти всё отсмотрено либо неинтересно), надеюсь данный ролик хоть на 11 минут, но восполнит этот дефицит и доставит хоть немного удовольствия от просмотра. Если кому-то понравится, пожалуйста, отпишитесь в комментах. Мне как автору данного видео было бы очень приятно
Примечание: маленьким детям смотреть запрещено, потому что как и в любом нормальном и современном фильме там есть большие $и$ьки
Качество: Full HD видео, отснятое на 3D-видеокамеру
Контейнер: MPEG-4 (MP4) Проверено на LG Cinema 3D 47LW4500
Формат 3D: Half SideBySide / Горизонтальная анаморфная стереопара
Порядок ракурсов: левый ракурс первый
Видео кодек: AVC
Аудио кодек: AAC
Видео: 16:9, 1080 progressive, 15,2 Мбит/сек (переменный)
Аудио: AAC, 151 Кбит/сек (переменный)
MediaInfo
Формат : MPEG-4
Профиль формата : Base Media
Идентификатор кодека : isom
Размер файла : 1,23 Гбайт
Продолжительность : 11 м.
Режим общего битрейта : Переменный
Общий поток : 15,2 Мбит/сек
Дата кодирования : UTC 2012-04-17 17:12:56
Дата пометки : UTC 2012-04-17 17:12:56
Программа кодирования : Lavf51.12.1
Видео
Идентификатор : 1
Формат : AVC
Формат/Информация : Advanced Video Codec
Профиль формата : Baseline@L4.1
Параметр CABAC формата : Нет
Параметр ReFrames формата : 1 кадр
Параметр GOP формата : M=1, N=12
Идентификатор кодека : avc1
Идентификатор кодека/Информация : Advanced Video Coding
Продолжительность : 11 м.
Битрейт : 15,1 Мбит/сек
Ширина : 1920 пикселей
Высота : 1080 пикселей
Соотношение сторон : 16:9
Режим частоты кадров : Постоянный
Частота кадров : 29,970 кадров/сек
Цветовое пространство : YUV
Субдискретизация насыщенности : 4:2:0
Битовая глубина : 8 бит
Тип развёртки : Прогрессивная
Бит/(Пиксели*Кадры) : 0.243
Размер потока : 1,22 Гбайт (99%)
Язык : English
Дата кодирования : UTC 2012-04-17 17:12:56
Дата пометки : UTC 2012-04-17 17:12:56
Аудио
Идентификатор : 2
Формат : AAC
Формат/Информация : Advanced Audio Codec
Профиль формата : LC
Идентификатор кодека : 40
Продолжительность : 11 м.
Вид битрейта : Переменный
Битрейт : 151 Кбит/сек
Каналы : 2 канала
Расположение каналов : Front: L R
Частота : 44,1 КГц
Метод сжатия : С потерями
Размер потока : 12,5 Мбайт (1%)
Скриншоты





Вернуться к началу
 Профиль Отправить личное сообщение  
 
   Похожие торренты   Автор   Торрент   Размер 
В этой теме нет новых непрочитанных сообщений. Свадьба / A Wedding [Комедия, драма, мелодрама, 1978] HDTV 1080i, Mvo

salma3

21 | 17

8.86 ГБ

В этой теме нет новых непрочитанных сообщений. Свадьба Уайлд / The Wilde Wedding [комедия, 2017] WEBDLRip, Dvo

salma3

156 | 27

1.32 ГБ

В этой теме нет новых непрочитанных сообщений. Свадьба Мюриэль / Muriel's Wedding [Комедия, 1994] BDRip 1080p, Dvo

salma3

42 | 29

7.7 ГБ

В этой теме нет новых непрочитанных сообщений. Очень противная свадьба / A Very Sordid Wedding [комедия, 2017] HDRip, Mvo

salma3

51 | 11

1.46 ГБ

В этой теме нет новых непрочитанных сообщений. Очень противная свадьба / A Very Sordid Wedding [комедия, 2017] HDRip, Mvo

salma3

68 | 5

1.37 ГБ

В этой теме нет новых непрочитанных сообщений. Свадьба на ферме / A Harvest Wedding [Мелодрама, комедия, 2017] HDTVRip, Dvo

salma3

26 | 1

1.14 ГБ

В этой теме нет новых непрочитанных сообщений. Свадьба на ферме / A Harvest Wedding [Мелодрама, комедия, 2017] HDTVRip 1080p, Dvo

salma3

8 | 3

4.49 ГБ


Начать новую тему Ответить на тему  [ 1 сообщение ] 




Для Мосгорсуда, Роскомнадзора и рекламодателей:: mosgorsud-torrent[собачка]yandex.ru
cron