COVID-19 - Последняя информация о коронавирусе на сайте Минздрава




Торрент файл
скачать торрент магнет ссылка Добавлен: 07 окт 2012, 21:29
Размер: 460.4 МБ
Сидеров: 6
Личеров: 4
Автор

СообщениеДобавлено: 07 окт 2012, 21:29 

Не в сети
Аватара пользователя
Дата регистрации:
28 ноя 2010, 22:22
Спасибо: 722 / 5
Сообщения: 2030
Прогулка по ЮБК.
Год выпуска: 2011
Страна: Украина
Жанр: Любительская съемка
Продолжительность: 00:13:25
Перевод: Не требуется
Русские субтитры: нет
Описание: Небольшая прогулка по ЮБК. В видео файле есть снимки:
- водохранилище в Изобильном
- водопад "Учан-су"
- Форосская церковь
- гора "Кошка"
- "Ласточкино гнездо"
Фотографии собраны в видео файл для просмотра на телевизорах поддерживающих функцию 3D.
Качество: HDTV
Контейнер: AVI
Формат 3D: Half SideBySide / Горизонтальная анаморфная стереопара
Порядок ракурсов: левый ракурс первый
Видео кодек: xVid
Аудио кодек: MP3
Видео: XVID 4798 Kbps 1920х1080 16:9 25.000 fps
Аудио: MP3 2 channels 128 Kbps 44.1 KHz
MediaInfo
General
Complete name : 3D_Progulka_UBK.avi
Format : AVI
Format/Info : Audio Video Interleave
File size : 460 MiB
Duration : 13mn 25s
Overall bit rate : 4 798 Kbps
Video
ID : 0
Format : MPEG-4 Visual
Codec ID : XVID
Codec ID/Hint : XviD
Duration : 13mn 25s
Bit rate : 4 665 Kbps
Width : 1 920 pixels
Height : 1 080 pixels
Display aspect ratio : 16:9
Frame rate : 25.000 fps
Color space : YUV
Chroma subsampling : 4:2:0
Compression mode : Lossy
Bits/(Pixel*Frame) : 0.090
Stream size : 448 MiB (97%)
Audio
ID : 1
Format : MPEG Audio
Format version : Version 1
Format profile : Layer 3
Mode : Joint stereo
Mode extension : MS Stereo
Codec ID : 55
Codec ID/Hint : MP3
Duration : 13mn 25s
Bit rate mode : Constant
Bit rate : 128 Kbps
Channel(s) : 2 channels
Sampling rate : 44.1 KHz
Compression mode : Lossy
Stream size : 12.3 MiB (3%)
Alignment : Aligned on interleaves
Interleave, duration : 1000 ms (25.00 video frames)
Скриншоты






Скачать книги и аудио книги через торрент


Вернуться к началу
 Профиль Отправить личное сообщение  
 
   Похожие торренты   Автор   Торрент   Размер 
В этой теме нет новых непрочитанных сообщений. Любительская русская пара (2018) CamRip

Dievas

406 | 198

261.77 МБ

В этой теме нет новых непрочитанных сообщений. Amateur 3Some Sex Tapes / Любительская Пленка Втроем (Reality Kings) [2018 г., Amateur, Gonzo, Threesomes, DVDRip]

salma3

0 | 0

2.16 ГБ

В этой теме нет новых непрочитанных сообщений. Прогулка по Риму / Una gita a Roma [приключения, семейный, 2017] WEB-DL 1080p, Mvo

salma3

0 | 0

4.14 ГБ

В этой теме нет новых непрочитанных сообщений. Большая прогулка / La grande vadrouille [Комедия, Приключения, Военный, 1966] BDRip 720p, Dub

salma3

0 | 0

7.28 ГБ

В этой теме нет новых непрочитанных сообщений. Полу-Нельсон / Half Nelson [драма, 2006] BDRip, Dvo

salma3

0 | 0

1.45 ГБ

В этой теме нет новых непрочитанных сообщений. Полицейский с половиной / Cop and a Half [Комедия, семейный, 1993] WEB-DL 1080p, Dub

salma3

0 | 0

8.25 ГБ

В этой теме нет новых непрочитанных сообщений. Полусвет / Half Light [Триллер, драма, детектив, 2006] BDRemux 1080p, Mvo

salma3

0 | 1

24.39 ГБ


Начать новую тему Ответить на тему  [ 1 сообщение ] 




Для Мосгорсуда, Роскомнадзора и рекламодателей:: rstracker[собака]yandex.ru
cron