COVID-19 - Последняя информация о коронавирусе на сайте Минздрава




Торрент файл
скачать торрент магнет ссылка Добавлен: 07 окт 2012, 21:28
Размер: 223.05 МБ
Сидеров: 5
Личеров: 4
Автор

СообщениеДобавлено: 07 окт 2012, 21:28 

Не в сети
Аватара пользователя
Дата регистрации:
28 ноя 2010, 22:22
Спасибо: 722 / 5
Сообщения: 2030
Дизайн интерьера
Год выпуска: 2012
Жанр: Демо-ролик
Продолжительность: 00:00:56
Русские субтитры: нет
Описание: Ролик, демонстрирующий дизайн виртуальных интерьеров в стерео-3Д.
Качество: HDTV
Контейнер: ASF
Формат 3D: Half SideBySide / Горизонтальная анаморфная стереопара
Порядок ракурсов: правый ракурс первый
Видео кодек: WMV9
Аудио кодек: WMA10
Видео: WMV3, IVTC Film, 1920x1080p, VC-1, 16:9, 33.7 mbps, 23.976 fps
Аудио: WMA, 6 ch, 48 kbps, 257 kbps
MediaInfo
Общее
Полное имя : D:\DCP\idea\SonyVegas\3d-design.wmv
Формат : Windows Media
Размер файла : 223 Мбайт
Продолжительность : 55 с.
Режим общего битрейта : Переменный
Общий поток : 34,0 Мбит/сек
Максимальный общий битрейт : 61,7 Мбит/сек
Название фильма : Interior design in stereo-3d
Исполнитель : Radchenko Pavel
Дата записи : 2012
Дата кодирования : UTC 2012-03-17 18:07:30.478
Правообладатель : Interior-Idea
Примечание : Stereo-3D demo
SfOriginalFPS : 239760
Видео
Идентификатор : 2
Формат : VC-1
Профиль формата : MP
Идентификатор кодека : WMV3
Идентификатор кодека/Информация : Windows Media Video 9
Идентификатор кодека/Подсказка : WMV3
Описание кодека : Windows Media Video 9 - Professional
Продолжительность : 55 с.
Вид битрейта : Переменный
Битрейт : 33,7 Мбит/сек
Ширина : 1920 пикселей
Высота : 1080 пикселей
Соотношение сторон : 16:9
Частота кадров : 23,976 кадра/сек
Битовая глубина : 8 бит
Тип развёртки : Прогрессивная
Метод сжатия : С потерями
Бит/(Пиксели*Кадры) : 0.677
Размер потока : 221 Мбайт (99%)
Язык : Ukrainian
Аудио
Идентификатор : 1
Формат : WMA
Профиль формата : Pro
Идентификатор кодека : 162
Идентификатор кодека/Информация : Windows Media Audio
Описание кодека : Windows Media Audio 10 Professional - VBR Quality 98, 48 kHz, 5.1 channel 24 bit 1-pass VBR
Продолжительность : 55 с.
Вид битрейта : Постоянный
Битрейт : 257 Кбит/сек
Каналы : 6 каналов
Частота : 48,0 КГц
Битовая глубина : 24 бит
Размер потока : 1,69 Мбайт (1%)
Язык : Ukrainian
Скриншоты



Скачать книги и аудио книги через торрент


Вернуться к началу
 Профиль Отправить личное сообщение  
 
   Похожие торренты   Автор   Торрент   Размер 
В этой теме нет новых непрочитанных сообщений. Denise Fagerberg (71 ролик) MegaPack [2012-2016, Amateur, Big Boobs, Fake Boobs, Big Butt, Fake Butt, Ebony, Solo, Toys, Webcam]

salma3

0 | 0

12.52 ГБ

В этой теме нет новых непрочитанных сообщений. Crystal Gold (aka Catalina) (101 ролик) [All Sex, Big Tits, Lesbo, Anal]

salma3

7 | 2

16.31 ГБ

В этой теме нет новых непрочитанных сообщений. Monica Roccaforte (41 ролик) (aka Claudia, Sylvia, Jolan, Sandra, Szilvia, Silvia) Pack / RePack [1997-2001, Straight, Anal, DVDRip]

salma3

29 | 10

6.61 ГБ

В этой теме нет новых непрочитанных сообщений. Porcha Sins (31 ролик) Pack [2011-2014, Redhead, Big Boobs, Fake Boobs, All Sex, Lesbian, Threesome, Fetish]

salma3

5 | 1

12.95 ГБ

В этой теме нет новых непрочитанных сообщений. Cali Carter (31 ролик) (aka Calie Carter, Callie Carter) Pack [2016-2018, All Sex, Anal, Big Tits, Interracial, Lesbians, Toys]

salma3

1 | 0

30.26 ГБ

В этой теме нет новых непрочитанных сообщений. Maya Bijou (61 ролик) MegaPack / Maya Bijou [2016-2018] (часть 2; 25 роликов) [All Sex; 720p, 1080p, 2160p]

salma3

0 | 2

78.28 ГБ

В этой теме нет новых непрочитанных сообщений. Maya Bijou (61 ролик) MegaPack / Maya Bijou [2016-2018] (часть 1; 36 роликов) [All Sex; 720p, 1080p, 2160p]

salma3

0 | 0

95.17 ГБ


Начать новую тему Ответить на тему  [ 1 сообщение ] 




Для Мосгорсуда, Роскомнадзора и рекламодателей:: rstracker[собака]yandex.ru
cron