COVID-19 - Последняя информация о коронавирусе на сайте Минздрава




Торрент файл
скачать торрент магнет ссылка Добавлен: 07 окт 2012, 21:28
Размер: 156.11 МБ
Сидеров: 14
Личеров: 4
Автор

СообщениеДобавлено: 07 окт 2012, 21:28 

Не в сети
Аватара пользователя
Дата регистрации:
28 ноя 2010, 22:22
Спасибо: 722 / 5
Сообщения: 2030
Пираты Карибского моря: На странных берегах / Pirates of the Caribbean: On Stranger Tides | (2011)
Тип раздаваемого материала: трейлер
Год выпуска фильма: 2011
Страна: США
Жанр: приключения
Продолжительность: 00:02:08
Перевод: отсутствует
Русские субтитры: нет
Режиссер: Роб Маршалл / Rob Marshall
В ролях: Джонни Депп, Пенелопа Крус, Иэн МакШейн, Джеффри Раш, Оскар Хаенада, Кевин МакНэлли, Стивен Грэм, Сэм Клафлин, Джемма Уорд, Грег Эллис.
Сценарий: Тед Эллиот, Терри Россио, Стюарт Битти, ...
Продюсер: Джерри Брукхаймер, Джон ДеЛюка, Тед Эллиот, ...
Оператор: Дариуш Вольски
Премьера (мир): 18 мая 2011
Премьера (РФ): 19 мая 2011
Описание: В новой истории о поисках истины, предательстве, вечной молодости и смертельной опасности капитану Джеку Воробью предстоит столкнуться с женщиной из своего прошлого Анжеликой. До самого конца не будет понятно, связывает ли их настоящая любовь, или же Анжелика искусно притворяется, чтобы вместе с Джеком добраться до таинственного источника вечной молодости.
Она силой принуждает капитана Джека Воробья взойти на корабль «Месть Королевы Анны», которым управляет коварный злодей Черная Борода. Наш герой оказывается в ситуации, когда он не знает, чего ему бояться больше — ужасного злодея или же свою давнюю подругу.
Качество: HDTVrip
Формат 3D: Half SideBySide / Горизонтальная анаморфная стереопара
Формат видео: mkv
Видео кодек: x264
Аудио кодек: ac3
Видео: MPEG4 Video (H264) 1920x1080 25.00fps ~10mbps
Аудио: Dolby AC3 48000Hz stereo 192kbps
Скриншоты
mi
Format : Matroska
File size : 156 MiB
Duration : 2mn 8s
Overall bit rate : 10.2 Mbps
Encoded date : UTC 2010-12-16 15:30:09
Writing application : mkvmerge v4.3.0 ('Escape from the Island') built on Sep 5 2010 10:30:51
Writing library : libebml v1.0.0 + libmatroska v1.0.0
Video
ID : 1
Format : AVC
Format/Info : Advanced Video Codec
Format profile : High@L4.0
Format settings, CABAC : Yes
Format settings, ReFrames : 4 frames
Format settings, GOP : M=1, N=16
Muxing mode : Container profile=Unknown@4.0
Codec ID : V_MPEG4/ISO/AVC
Duration : 2mn 8s
Bit rate : 10.0 Mbps
Width : 1 920 pixels
Height : 1 080 pixels
Display aspect ratio : 16:9
Frame rate : 25.000 fps
Color space : YUV
Chroma subsampling : 4:2:0
Bit depth : 8 bits
Scan type : Progressive
Bits/(Pixel*Frame) : 0.193
Stream size : 150 MiB (96%)
Writing library : x264 core 105 r1724 b02df7b
Encoding settings : cabac=1 / ref=3 / deblock=1:-1:-1 / analyse=0x3:0x113 / me=hex / subme=7 / psy=1 / psy_rd=1.00:0.15 / mixed_ref=1 / me_range=16 / chroma_me=1 / trellis=1 / 8x8dct=1 / cqm=0 / deadzone=21,11 / fast_pskip=1 / chroma_qp_offset=-3 / threads=3 / sliced_threads=0 / nr=0 / decimate=1 / interlaced=0 / constrained_intra=0 / bframes=3 / b_pyramid=2 / b_adapt=1 / b_bias=0 / direct=1 / weightb=1 / open_gop=0 / weightp=2 / keyint=250 / keyint_min=25 / scenecut=40 / intra_refresh=0 / rc_lookahead=40 / rc=2pass / mbtree=1 / bitrate=10029 / ratetol=1.0 / qcomp=0.60 / qpmin=10 / qpmax=51 / qpstep=4 / cplxblur=20.0 / qblur=0.5 / ip_ratio=1.40 / aq=1:1.00
Audio
ID : 2
Format : AC-3
Format/Info : Audio Coding 3
Mode extension : ME (music and effects)
Codec ID : A_AC3
Duration : 2mn 8s
Bit rate mode : Constant
Bit rate : 192 Kbps
Channel(s) : 2 channels
Channel positions : Front: L R
Sampling rate : 48.0 KHz
Bit depth : 16 bits
Stream size : 2.93 MiB (2%)
Language : English



Скачать книги и аудио книги через торрент


Вернуться к началу
 Профиль Отправить личное сообщение  
 
   Похожие торренты   Автор   Торрент   Размер 
В этой теме нет новых непрочитанных сообщений. Пираты кровавой реки / Pirates of Blood River [Приключения, пираты, драма, 1962] BDRip 1080p, Mvo

salma3

0 | 0

7.66 ГБ

В этой теме нет новых непрочитанных сообщений. Маршалл / Marshall [Драма, биография, 2017] BDRip-AVC, Mvo [iTunes]

salma3

233 | 56

2.06 ГБ

В этой теме нет новых непрочитанных сообщений. Роб Рой / Rob Roy [Приключения, биография, история, 1995] BDRip 1080p, Mvo

salma3

2 | 1

19.61 ГБ

В этой теме нет новых непрочитанных сообщений. Роб Рой / Rob Roy [ боевик, приключения, биография, 1995] BDRip 720p, Mvo

salma3

0 | 0

7.15 ГБ

В этой теме нет новых непрочитанных сообщений. Маршалл / Marshall [Драма, биография, 2017] BDRip, Mvo [iTunes]

salma3

0 | 0

2.14 ГБ

В этой теме нет новых непрочитанных сообщений. Маршалл / Marshall [Драма, биография, 2017] BDRip, Mvo [iTunes]

salma3

0 | 0

745.6 МБ

В этой теме нет новых непрочитанных сообщений. Маршалл / Marshall [драма, биография, 2017] BDRip 1080p, Mvo [iTunes]

salma3

192 | 70

11.71 ГБ


Начать новую тему Ответить на тему  [ 1 сообщение ] 




Для Мосгорсуда, Роскомнадзора и рекламодателей:: rstracker[собака]yandex.ru
cron