Торрент файл
скачать торрент магнет ссылка Добавлен: 07 окт 2012, 21:27
Размер: 3.78 ГБ
Сидеров: 2
Личеров: 2
Автор

СообщениеДобавлено: 07 окт 2012, 21:27 

Не в сети
Аватара пользователя
Дата регистрации:
28 ноя 2010, 22:22
Спасибо: 722 / 5
Сообщения: 2030
Группа "Мара" / Концерт в Санкт-Петербурге (Россия)
Дата: 17.12.2010
Страна: Россия
Жанр: Rock
Продолжительность: 01:13:43
Перевод: Не требуется
Русские субтитры: Нет
В главной роли: Группа "Мара"
Автор рипа: Nikolay_-_-
Канал:
Описание: Данный концерт прошёл в клубе "Космонавт" , а после него певица дала интервью.
Дополнительная информация: Rock я не люблю, но данный концерт мне очень понравился, а треклиста нет и не будет.
Формат 3D: SideBySide / Горизонтальная анаморфная стереопара
Качество: HDTV
Формат: TS
Видео: H.264; 1920x1080 (16:9); 25.000 fps; 6525 kbps
Аудио: AC-3; 48000 Hz; 448 kbps; 2 channels
MediaInfo
Общее
Идентификатор : 1 (0x1)
Полное имя : F:\Закачки\Мара.Концерт.17.12.2010.СПб.Россия-Nikolay_-_-.ts
Формат : MPEG-TS
Размер файла : 3,78 Гбайт
Продолжительность : 1 ч. 13 м.
Режим общего битрейта : Переменный
Общий поток : 7341 Кбит/сек
Максимальный общий битрейт : 35,5 Мбит/сек
Видео
Идентификатор : 4113 (0x1011)
Идентификатор меню : 1 (0x1)
Формат : AVC
Формат/Информация : Advanced Video Codec
Профиль формата : Main@L4.0
Параметр CABAC формата : Да
Параметр ReFrames формата : 3 кадра
Параметр GOP формата : M=4, N=32
Идентификатор кодека : 27
Продолжительность : 1 ч. 13 м.
Вид битрейта : Переменный
Битрейт : 6525 Кбит/сек
Максимальный битрейт : 40,0 Мбит/сек
Ширина : 1920 пикселей
Высота : 1080 пикселей
Соотношение сторон : 16:9
Частота кадров : 25,000 кадров/сек
Стандарт вещания : Component
Цветовое пространство : YUV
Субдискретизация насыщенности : 4:2:0
Битовая глубина : 8 бит
Тип развёртки : Чересстрочная
Порядок развёртки : Верхнее поле первое
Бит/(Пиксели*Кадры) : 0.126
Размер потока : 3,36 Гбайт (89%)
Основные цвета : BT.709-5, BT.1361, IEC 61966-2-4, SMPTE RP177
Характеристики трансфера : BT.709-5, BT.1361
Коэффициенты матрицы : BT.709-5, BT.1361, IEC 61966-2-4 709, SMPTE RP177
Аудио
Идентификатор : 4352 (0x1100)
Идентификатор меню : 1 (0x1)
Формат : AC-3
Формат/Информация : Audio Coding 3
Расширение режима : CM (complete main)
Параметр Endianness формата : Big
Идентификатор кодека : 129
Продолжительность : 1 ч. 13 м.
Вид битрейта : Постоянный
Битрейт : 448 Кбит/сек
Каналы : 2 канала
Расположение каналов : Front: L R
Частота : 48,0 КГц
Битовая глубина : 16 бит
Метод сжатия : С потерями
Задержка видео : 6 мс.
Размер потока : 236 Мбайт (6%)
Язык : Russian
Скриншоты




Вернуться к началу
 Профиль Отправить личное сообщение  
 
   Похожие торренты   Автор   Торрент   Размер 
В этой теме нет новых непрочитанных сообщений. Концерт Ирины Аллегровой в Олимпийском (Россия) [Концерт, 2015] HDTV 1080i

Dracon

335 | 52

6.13 ГБ

В этой теме нет новых непрочитанных сообщений. Группа Пелагея - Вишнёвый сад (Светлана Ханова) [Концерт, 2015] HDTV 1080i

Dracon

672 | 139

6.34 ГБ

В этой теме нет новых непрочитанных сообщений. Хоккей. Молодёжный чемпионат мира 2017 (U-20). Группа B. 3 тур. Россия - США [29.12] (2016) HDTV 1080i

salma3

12 | 11

8.97 ГБ

В этой теме нет новых непрочитанных сообщений. Хоккей. Молодёжный чемпионат мира 2017 (U-20). Группа В. 1 тур. Канада – Россия [27.12] (2016) HDTV 1080i

salma3

52 | 7

5.02 ГБ

В этой теме нет новых непрочитанных сообщений. Хоккей. Молодёжный чемпионат мира 2017 (U-20). Группа В. 2 тур. Россия - Латвия [27.12] (2016) HDTV 1080i

salma3

24 | 8

9.6 ГБ

В этой теме нет новых непрочитанных сообщений. Первая Российская национальная музыкальная премия [11.12] (Россия) [Концерт, музыкально-развлекательная телепередача, 2015] HDTV 1080i

Dracon

74 | 14

10.92 ГБ

В этой теме нет новых непрочитанных сообщений. XXIII Зимние Олимпийские игры. Хоккей. Мужчины. Группа B. 3-й тур. Россия - США [Матч Арена HD] (2018) HDTV 1080i от GeneralFilm

salma3

0 | 0

8.41 ГБ


Начать новую тему Ответить на тему  [ 1 сообщение ] 




Для Мосгорсуда, Роскомнадзора и рекламодателей:: mosgorsud-torrent[собачка]yandex.ru
cron