[ 1 сообщение ] 
Автор Сообщение

СообщениеДобавлено: 07 окт 2012, 21:27 

Не в сети
Аватара пользователя

Спасибо: 722 / 5
Сообщения: 2030
Дата регистрации: 28 ноя 2010, 22:22
Торренты: 1936
Самсунг Демо 3Д (2)Samsung Demo 3D (2)
Год выпуска: 2010
Страна: Корея
Жанр: Демо
Продолжительность: 00:23:07
Перевод: Отсутствует (необязателен)
Описание: Лучшие ролики с демо-диска Samsung. Объединены в 3 файла. В файлы вшиты главы: 1 ролик - 1 глава. Главы работают не на всех ТВ-плейерах! Наименования роликов и тайминги смотрите в самом низу соответствующего МедиаИнфо.

1. Samsung-2.1 (4 ролика):
Продолжительность: 00:07:10
Видео: AVC / 1920х1080p / 23,976 fps / 12,9 Mbps
Аудио: AC3 / 2 ch / 256 Kbps / 48 KHz

2. Samsung-2.2 (4 ролика):
Продолжительность: 00:06:26
Видео: AVC / 1920х1080p / 23,976 fps / 13,6 Mbps
Аудио: AC3 / 6 ch / 640 Kbps / 48 KHz

3. Samsung-2.3 (Phil Driscoll)(2 ролика):
Продолжительность: 00:09:27
Видео: AVC / 1920х1080p / 23,976 fps / 15,0 Mbps
Аудио: AC3 / 2 ch / 256 Kbps / 48 KHz

Проверено на встроенном плейере ТВ Samsung UE-C7000

Качество: BDrip
Контейнер: MKV
Формат 3D: Half OverUnder / Вертикальная анаморфная стереопара
Порядок ракурсов: левый ракурс первый
Видео кодек: x264
Аудио кодек: AC3
MediaInfo Samsung-2.1
General
UniqueID : 191428916344948013504225511521513243677 (0x9003DE43BBD063B18DD50FEB838E041D)
Complete name : F:\Downloads\Samsung-Demo-2(3D)2010.halfOU.AC3(ash61)\Sams-2.1(3D)2010.halfOU.AC3(ash61).mkv
Format : Matroska
File size : 692 MiB
Duration : 7mn 11s
Overall bit rate : 13.5 Mbps
Movie name : Samsung Demo 3D (2010)(ash61)
Encoded date : UTC 2012-01-24 11:52:01
Writing application : mkvmerge v3.4.0 ('Rapunzel') сборка от May 15 2010 09:38:20
Writing library : libebml v0.8.0 + libmatroska v0.9.0
Video
ID : 1
Format : AVC
Format/Info : Advanced Video Codec
Format profile : High@L4.1
Format settings, CABAC : Yes
Format settings, ReFrames : 4 frames
Codec ID : V_MPEG4/ISO/AVC
Duration : 7mn 11s
Bit rate : 12.9 Mbps
Width : 1 920 pixels
Height : 1 080 pixels
Display aspect ratio : 16:9
Frame rate : 23.976 fps
Color space : YUV
Chroma subsampling : 4:2:0
Bit depth : 8 bits
Scan type : Progressive
Bits/(Pixel*Frame) : 0.260
Stream size : 665 MiB (96%)
Title : BDrip by Ash61
Writing library : x264 core 112 r1834 a51816a
Encoding settings : cabac=1 / ref=4 / deblock=1:-1:-1 / analyse=0x3:0x113 / me=umh / subme=9 / psy=1 / psy_rd=1.00:0.15 / mixed_ref=1 / me_range=16 / chroma_me=1 / trellis=2 / 8x8dct=1 / cqm=0 / deadzone=21,11 / fast_pskip=1 / chroma_qp_offset=-3 / threads=3 / sliced_threads=0 / nr=0 / decimate=1 / interlaced=0 / constrained_intra=0 / bframes=4 / b_pyramid=0 / b_adapt=2 / b_bias=0 / direct=3 / weightb=1 / open_gop=0 / weightp=2 / keyint=250 / keyint_min=23 / scenecut=40 / intra_refresh=0 / rc_lookahead=40 / rc=crf / mbtree=1 / crf=18.0 / qcomp=0.60 / qpmin=10 / qpmax=51 / qpstep=4 / vbv_maxrate=50000 / vbv_bufsize=50000 / crf_max=0.0 / ip_ratio=1.40 / aq=1:1.00 / nal_hrd=none
Audio
ID : 2
Format : AC-3
Format/Info : Audio Coding 3
Mode extension : CM (complete main)
Codec ID : A_AC3
Duration : 7mn 11s
Bit rate mode : Constant
Bit rate : 256 Kbps
Channel(s) : 2 channels
Channel positions : Front: L R
Sampling rate : 48.0 KHz
Bit depth : 16 bits
Compression mode : Lossy
Stream size : 13.2 MiB (2%)
Menu
00:00:00.000 : en:3D Demo Mix
00:03:23.000 : en:The Wind Tells A Story
00:04:41.000 : en:Australia
00:05:50.000 : en:Bolts & Blip
MediaInfo Samsung-2.2
General
UniqueID : 205174472520736911083651534603547806083 (0x9A5B2A81EF6B80959239E60FBC238983)
Complete name : F:\Downloads\Samsung-Demo-2(3D)2010.halfOU.AC3(ash61)\Sams-2.2(3D)2010.halfOU.AC3(ash61).mkv
Format : Matroska
File size : 673 MiB
Duration : 6mn 27s
Overall bit rate : 14.6 Mbps
Movie name : Samsung Demo 3D (2010)(ash61)
Encoded date : UTC 2012-01-24 11:53:18
Writing application : mkvmerge v3.4.0 ('Rapunzel') сборка от May 15 2010 09:38:20
Writing library : libebml v0.8.0 + libmatroska v0.9.0
Video
ID : 1
Format : AVC
Format/Info : Advanced Video Codec
Format profile : High@L4.1
Format settings, CABAC : Yes
Format settings, ReFrames : 4 frames
Codec ID : V_MPEG4/ISO/AVC
Duration : 6mn 27s
Bit rate : 13.6 Mbps
Width : 1 920 pixels
Height : 1 080 pixels
Display aspect ratio : 16:9
Frame rate : 23.976 fps
Color space : YUV
Chroma subsampling : 4:2:0
Bit depth : 8 bits
Scan type : Progressive
Bits/(Pixel*Frame) : 0.275
Stream size : 630 MiB (94%)
Title : BDrip by Ash61
Writing library : x264 core 112 r1834 a51816a
Encoding settings : cabac=1 / ref=4 / deblock=1:-1:-1 / analyse=0x3:0x113 / me=umh / subme=9 / psy=1 / psy_rd=1.00:0.15 / mixed_ref=1 / me_range=16 / chroma_me=1 / trellis=2 / 8x8dct=1 / cqm=0 / deadzone=21,11 / fast_pskip=1 / chroma_qp_offset=-3 / threads=3 / sliced_threads=0 / nr=0 / decimate=1 / interlaced=0 / constrained_intra=0 / bframes=4 / b_pyramid=0 / b_adapt=2 / b_bias=0 / direct=3 / weightb=1 / open_gop=0 / weightp=2 / keyint=250 / keyint_min=23 / scenecut=40 / intra_refresh=0 / rc_lookahead=40 / rc=crf / mbtree=1 / crf=18.0 / qcomp=0.60 / qpmin=10 / qpmax=51 / qpstep=4 / vbv_maxrate=50000 / vbv_bufsize=50000 / crf_max=0.0 / ip_ratio=1.40 / aq=1:1.00 / nal_hrd=none
Audio
ID : 2
Format : AC-3
Format/Info : Audio Coding 3
Mode extension : CM (complete main)
Codec ID : A_AC3
Duration : 6mn 27s
Bit rate mode : Constant
Bit rate : 640 Kbps
Channel(s) : 6 channels
Channel positions : Front: L C R, Side: L R, LFE
Sampling rate : 48.0 KHz
Bit depth : 16 bits
Compression mode : Lossy
Stream size : 29.5 MiB (4%)
Menu
00:00:00.000 : en:Boys Like Girls - Heart Heart Heartbreak
00:02:40.500 : en:Nascar Racing
00:04:02.000 : en:IAAF
00:05:20.000 : en:Chelsea Soccer
MediaInfo Samsung-2.3 (Phil Driscoll)
General
UniqueID : 218770431655498563080416290097551451304 (0xA495A70C058593E5A821CF1ECF3124A8)
Complete name : F:\Downloads\Samsung-Demo-2(3D)2010.halfOU.AC3(ash61)\Sams-2.3-Driscoll(3D)2010.halfOU.AC3(ash61).mkv
Format : Matroska
File size : 1.03 GiB
Duration : 9mn 28s
Overall bit rate : 15.6 Mbps
Movie name : Samsung Demo 3D (2010)(ash61)
Encoded date : UTC 2012-01-24 11:54:17
Writing application : mkvmerge v3.4.0 ('Rapunzel') сборка от May 15 2010 09:38:20
Writing library : libebml v0.8.0 + libmatroska v0.9.0
Video
ID : 1
Format : AVC
Format/Info : Advanced Video Codec
Format profile : High@L4.1
Format settings, CABAC : Yes
Format settings, ReFrames : 4 frames
Codec ID : V_MPEG4/ISO/AVC
Duration : 9mn 28s
Bit rate : 15.0 Mbps
Width : 1 920 pixels
Height : 1 080 pixels
Display aspect ratio : 16:9
Frame rate : 23.976 fps
Color space : YUV
Chroma subsampling : 4:2:0
Bit depth : 8 bits
Scan type : Progressive
Bits/(Pixel*Frame) : 0.302
Stream size : 1 015 MiB (96%)
Title : BDrip by Ash61
Writing library : x264 core 112 r1834 a51816a
Encoding settings : cabac=1 / ref=4 / deblock=1:-1:-1 / analyse=0x3:0x113 / me=umh / subme=9 / psy=1 / psy_rd=1.00:0.15 / mixed_ref=1 / me_range=16 / chroma_me=1 / trellis=2 / 8x8dct=1 / cqm=0 / deadzone=21,11 / fast_pskip=1 / chroma_qp_offset=-3 / threads=3 / sliced_threads=0 / nr=0 / decimate=1 / interlaced=0 / constrained_intra=0 / bframes=4 / b_pyramid=0 / b_adapt=2 / b_bias=0 / direct=3 / weightb=1 / open_gop=0 / weightp=2 / keyint=250 / keyint_min=23 / scenecut=40 / intra_refresh=0 / rc_lookahead=40 / rc=crf / mbtree=1 / crf=18.0 / qcomp=0.60 / qpmin=10 / qpmax=51 / qpstep=4 / vbv_maxrate=50000 / vbv_bufsize=50000 / crf_max=0.0 / ip_ratio=1.40 / aq=1:1.00 / nal_hrd=none
Audio
ID : 2
Format : AC-3
Format/Info : Audio Coding 3
Mode extension : CM (complete main)
Codec ID : A_AC3
Duration : 9mn 28s
Bit rate mode : Constant
Bit rate : 256 Kbps
Channel(s) : 2 channels
Channel positions : Front: L R
Sampling rate : 48.0 KHz
Bit depth : 16 bits
Compression mode : Lossy
Stream size : 17.3 MiB (2%)
Menu
00:00:00.000 : en:Phil Driscoll - High Flight
00:04:45.000 : en:Phil Driscoll - You Raise Me Up
Скриншоты
Мои раздачи и рипы на трекере
Мои раздачи на трекере
.
Мои рипы в "исполнении" других релизёров:
Анаморфы:
Пираньи 3Д / Piranha 3D - вертикал
Алиса в стране чудес 3D / Alice in Wonderland 3D - горизонтал
Тор 3Д / Thor 3D - вертикал
Пастырь 3Д / Priest 3D - вертикал
Предельные перегрузки 3Д (мечта Зака о полетах) / Ultimate G's 3D (Zac's Flying Dream) - вертикал
Рио 3Д / Rio 3D - вертикал
Tайна красной планеты 3Д / Мars Needs Мoms 3D - вертикал
Король Лев 3Д / The Lion King 3D вертикал
Гномео и Джульетта 3D / Gnomeo and Juliet 3D - вертикал
Мегамозг 3Д / Megamind 3D - вертикал
Shakira - Waka Waka (This Time For Africa) 3D - горизонтал
The Black Eyed Peas - Imma Be 3D - вертикал
Шрам 3Д / Scar 3D - вертикал
Стальные двери 3Д / Iron Doors 3D - вертикал (моя видео-дорога)
Первый мститель / Captain America: The First Avenger - вертикал
Конан-варвар / Conan the Barbarian - вертикал
LG Demo Disc 3D - вертикал
Полноразмеры:
Пункт назначения 4 в 3Д / The Final Destination 3D - 1920х1600
Рио 3Д / Rio 3D - 1920х1600
Король Лев 3Д / The Lion King 3D - 1920х2160
[font='Times New Roman']Господа копипастеры, пожалуйста, уважайте труд рипперов -
не "забывайте" указывать авторство в своих релизах!
[/font]


У вас нет необходимых прав для просмотра вложений в этом сообщении.


Вернуться к началу
 Профиль Отправить личное сообщение  
 
 [ 1 сообщение ] 
   Похожие темы   Автор   Ответы   Просмотры 
В этой теме нет новых непрочитанных сообщений. [DorcelClub.com] Jessie Volt - Half Angel Half Succubus (25.11.2017) [2017 г., All Sex, Hardcore, 1080p]

salma3

150

В этой теме нет новых непрочитанных сообщений. Полу-Нельсон / Half Nelson [драма, 2006] BDRip, Dvo

salma3

378

В этой теме нет новых непрочитанных сообщений. Ни жив, ни мертв / Half Past Dead [боевик, триллер, криминал, 2002] BDRip, Dub

salma3

159

В этой теме нет новых непрочитанных сообщений. Полусвет / Half Light [ужасы, триллер, драма, 2006] BDRip 720p, Mvo

salma3

84

В этой теме нет новых непрочитанных сообщений. Tanida Demo Builder v11.0.18.0 (2017) PC | RePack by 78Sergey

salma3

151

В этой теме нет новых непрочитанных сообщений. Outlast 2 [v.1.0] [Action, Adventure, Survival, 2016] [Demo]

PriZraK

201

В этой теме нет новых непрочитанных сообщений. Не привычка, не любовь / Suki demo nai kuseni [драма, мелодрама, 2016] HDRip, Mvo

salma3

110





Перейти:  

Для Мосгорсуда, Роскомнадзора и рекламодателей:: mosgorsud-torrent[собачка]yandex.ru