Торрент файл
скачать торрент магнет ссылка Добавлен: 07 окт 2012, 21:26
Размер: 445.56 МБ
Сидеров: 3
Личеров: 3
Автор

СообщениеДобавлено: 07 окт 2012, 21:26 

Не в сети
Аватара пользователя
Дата регистрации:
28 ноя 2010, 22:22
Спасибо: 722 / 5
Сообщения: 2030
Zagruzin - "Пылесос - кровосос в 3D"
Год выпуска: 2011
Страна: Россия
Студия: GL-records
Жанр: стеб рок, 3D
Продолжительность: 00:07:21
Оф. сайт по 3D: http://glinka3d.ucoz.ru/
Видео гр. "Zagruzin" на ютуб: http://www.youtube.com/user/mrZagruzin
Описание: Музыкальный стеб-клип ужастик от ВИА-ансамбля воплей и тряски им. Карабаса Б. группы Zagruzin "Пылесос - кровосос в 3D"
Теперь в новом модном стереоскопическом формате. Снят полностью дома на цифромыльницы Samsung NV24HD с минимальной стереобазой 10см.

Версия под 3D ТВ. Полноразмерная пара 720р OU здесь
Бонусы: Стереофото в формате перекрестная стереопара. JPG, 1080р, 10шт.
Качество: HDTVrip
Контейнер: MKV
Формат 3D: Half OverUnder / Вертикальная анаморфная стереопара
Видео кодек: x264
Видео: AVC, 1920x1080р, 16:9, 7 543 Kbps, 29.97fps
Аудио: AC-3, 48 KHz, stereo, 640 Kbps
Внимание: Торрент файл заменен 01.10.2012г. Просьба перекачать заново. Заменен видео файл, адаптирован под формат встроенных плееров 3Д ТВ, проверено на LG 47" LW4500
MediaInfo
D:\MUSIC\.....\Zagruzin_Pilisos_3D_Anamorph_OU.mkv
General
Complete name : D:\MUSIC.....\Zagruzin_Pilisos_3D_Anamorph_OU.mkv
Format : Matroska
Format version : Version 2
File size : 439 MiB
Duration : 7mn 21s
Overall bit rate : 8 349 Kbps
Encoded date : UTC 2012-09-15 13:16:00
Writing application : mkvmerge v4.6.0 ('Still Crazy After All These Years') сборка от Mar 10 2011 02:50:32
Writing library : libebml v1.2.0 + libmatroska v1.1.0
Video #1
ID : 1
Format : AVC
Format/Info : Advanced Video Codec
Format profile : High@L4.1
Format settings, CABAC : Yes
Format settings, ReFrames : 4 frames
Codec ID : V_MPEG4/ISO/AVC
Duration : 7mn 21s
Bit rate : 7 543 Kbps
Width : 1 920 pixels
Height : 1 080 pixels
Display aspect ratio : 16:9
Frame rate mode : Constant
Frame rate : 29.970 fps
Color space : YUV
Chroma subsampling : 4:2:0
Bit depth : 8 bits
Scan type : Progressive
Bits/(Pixel*Frame) : 0.121
Stream size : 397 MiB (90%)
Title : video
Writing library : x264 core 120 r2145 748fe16
Encoding settings : cabac=1 / ref=4 / deblock=1:-1:-1 / analyse=0x3:0x113 / me=umh / subme=7 / psy=1 / psy_rd=1.00:0.00 / mixed_ref=1 / me_range=16 / chroma_me=1 / trellis=2 / 8x8dct=1 / cqm=0 / deadzone=21,11 / fast_pskip=1 / chroma_qp_offset=-3 / threads=6 / sliced_threads=0 / nr=0 / decimate=1 / interlaced=0 / bluray_compat=0 / constrained_intra=0 / bframes=6 / b_pyramid=0 / b_adapt=2 / b_bias=0 / direct=3 / weightb=1 / open_gop=0 / weightp=2 / keyint=250 / keyint_min=23 / scenecut=40 / intra_refresh=0 / rc_lookahead=40 / rc=crf / mbtree=1 / crf=20.0 / qcomp=0.60 / qpmin=0 / qpmax=69 / qpstep=4 / ip_ratio=1.40 / aq=1:1.00
Language : Russian
Default : Yes
Forced : No
Audio #2
ID : 2
Format : AC-3
Format/Info : Audio Coding 3
Mode extension : CM (complete main)
Format settings, Endianness : Big
Codec ID : A_AC3
Duration : 7mn 21s
Bit rate mode : Constant
Bit rate : 640 Kbps
Channel(s) : 2 channels
Channel positions : Front: L R
Sampling rate : 48.0 KHz
Bit depth : 16 bits
Compression mode : Lossy
Stream size : 33.7 MiB (8%)
Title : audio
Language : Russian
Default : Yes
Forced : No
Скриншоты


Примеры бонус фото:



Вернуться к началу
 Профиль Отправить личное сообщение  
 
   Похожие торренты   Автор   Торрент   Размер 
В этой теме нет новых непрочитанных сообщений. Стардаст, пылесос разумный / Stardust [Фантастика, драма, семейный, 1998] DVDRip, Dub

salma3

15 | 3

1.37 ГБ

В этой теме нет новых непрочитанных сообщений. [DorcelClub.com] Jessie Volt - Half Angel Half Succubus (25.11.2017) [2017 г., All Sex, Hardcore, 1080p]

salma3

30 | 10

506.33 МБ

В этой теме нет новых непрочитанных сообщений. Полицейский с половиной / Cop and a Half [Комедия, семейный, 1993] WEB-DL 1080p, Dub

salma3

0 | 0

8.25 ГБ

В этой теме нет новых непрочитанных сообщений. Полу-Нельсон / Half Nelson [драма, 2006] BDRip, Dvo

salma3

0 | 0

1.45 ГБ

В этой теме нет новых непрочитанных сообщений. Half-Life 2 Episode Two [ction (Shooter),3D,1st Person, 2007] [RePack]

Sykre

5 | 1

4.6 ГБ

В этой теме нет новых непрочитанных сообщений. [PureTaboo.com] Jill Kassidy, Kristen Scott - Half His Age - Part 3 (12.10.2017) [All sex]

salma3

6 | 2

629.08 МБ

В этой теме нет новых непрочитанных сообщений. Полусвет / Half Light [Триллер, драма, детектив, 2006] BDRemux 1080p, Mvo

salma3

0 | 1

24.39 ГБ


Начать новую тему Ответить на тему  [ 1 сообщение ] 




Для Мосгорсуда, Роскомнадзора и рекламодателей:: mosgorsud-torrent[собачка]yandex.ru
cron