COVID-19 - Последняя информация о коронавирусе на сайте Минздрава




Торрент файл
скачать торрент магнет ссылка Добавлен: 07 окт 2012, 21:26
Размер: 192.61 МБ
Сидеров: 6
Личеров: 3
Автор

СообщениеДобавлено: 07 окт 2012, 21:26 

Не в сети
Аватара пользователя
Дата регистрации:
28 ноя 2010, 22:22
Спасибо: 722 / 5
Сообщения: 2030
Лайф Концерт Веры Брежневой в 3D / Тв трансляция развлекательного телеканала "3D-Planeta"
Год выпуска: 2011
Страна: Украина
Студия: 3D Technology Production
Жанр: Музыка
Продолжительность: 00:04:16
Перевод: не требуется
Русские субтитры: нет
Описание: Тв трансляция развлекательного телеканала "3D-Planeta", в данном релизе частично представлен концерт Веры Брежневой.
Качество: TVrip
Контейнер: AVI
Формат 3D: Half SideBySide / Горизонтальная анаморфная стереопара
Порядок ракурсов: левый ракурс первый
Видео кодек: h.264
Аудио кодек: AAC
Видео: 1920x1080, 16:9, 5968 Kbps, 25 fps
Аудио: 2ch / 48.0 KHz / 320 Kbps
Субтитры: отсутствуют
MediaInfo
General
Complete name : H:\downloads\crystal_brezhneva.avi
Format : MPEG-4
Format profile : Base Media / Version 2
Codec ID : mp42
File size : 193 MiB
Duration : 4mn 16s
Overall bit rate : 6 293 Kbps
Encoded date : UTC 2011-01-14 15:18:33
Tagged date : UTC 2011-01-14 15:18:33
Video
ID : 2
Format : AVC
Format/Info : Advanced Video Codec
Format profile : Main@L5.0
Format settings, CABAC : Yes
Format settings, ReFrames : 5 frames
Codec ID : avc1
Codec ID/Info : Advanced Video Coding
Duration : 4mn 16s
Bit rate mode : Constant
Bit rate : 6 000 Kbps
Width : 1 920 pixels
Height : 1 080 pixels
Display aspect ratio : 16:9
Frame rate mode : Constant
Frame rate : 25.000 fps
Standard : PAL
Color space : YUV
Chroma subsampling : 4:2:0
Bit depth : 8 bits
Scan type : Progressive
Bits/(Pixel*Frame) : 0.116
Stream size : 183 MiB (95%)
Language : English
Encoded date : UTC 2011-01-14 15:18:33
Tagged date : UTC 2011-01-14 15:18:33
Audio
ID : 1
Format : AAC
Format/Info : Advanced Audio Codec
Format version : Version 4
Format profile : LC
Format settings, SBR : No
Codec ID : 40
Duration : 4mn 16s
Bit rate mode : Constant
Bit rate : 320 Kbps
Channel(s) : 2 channels
Channel positions : Front: L R
Sampling rate : 48.0 KHz
Stream size : 9.82 MiB (5%)
Language : English
Encoded date : UTC 2011-01-14 15:18:33
Tagged date : UTC 2011-01-14 15:18:33
Скриншоты



Скачать книги и аудио книги через торрент


Вернуться к началу
 Профиль Отправить личное сообщение  
 
   Похожие торренты   Автор   Торрент   Размер 
В этой теме нет новых непрочитанных сообщений. Улица полумесяца / Half Moon Street [драма, триллер, 1986] DVDRip-AVC, Avo

salma3

0 | 0

1.46 ГБ

В этой теме нет новых непрочитанных сообщений. Афтепати / The After Party [Комедия, музыка, 2018] WEB-DLRip-AVC, Mvo

salma3

0 | 0

1.46 ГБ

В этой теме нет новых непрочитанных сообщений. Лапочка / Honey [Драма, мелодрама, музыка, 2003] BDRip-AVC, Dub

salma3

2 | 0

745.74 МБ

В этой теме нет новых непрочитанных сообщений. Тяжёлая поездка / Hevi reissu [Комедия, музыка, 2018] HDRip-AVC, Mvo

salma3

0 | 0

1.52 ГБ

В этой теме нет новых непрочитанных сообщений. Обкуренные / The Stoned Age [Комедия, музыка, 1994] WEB-DLRip-AVC, Mvo

salma3

2 | 0

1.66 ГБ

В этой теме нет новых непрочитанных сообщений. Nat Geo Wild: Захватчики / The Invaders [01-06] (2010-2011) HDTVRip-AVC | P1

salma3

0 | 0

5.08 ГБ

В этой теме нет новых непрочитанных сообщений. Винил / Vinyl [S01] [драма, музыка, 2016] HDTVRip | Amedia

NTL

1 | 0

11.41 ГБ


Начать новую тему Ответить на тему  [ 1 сообщение ] 




Для Мосгорсуда, Роскомнадзора и рекламодателей:: rstracker[собака]yandex.ru
cron