COVID-19 - Последняя информация о коронавирусе на сайте Минздрава




Торрент файл
скачать торрент магнет ссылка Добавлен: 07 окт 2012, 21:26
Размер: 118.02 МБ
Сидеров: 37
Личеров: 7
Автор

СообщениеДобавлено: 07 окт 2012, 21:26 

Не в сети
Аватара пользователя
Дата регистрации:
28 ноя 2010, 22:22
Спасибо: 722 / 5
Сообщения: 2030
Трейлер Прометей 3D / Trailer Prometheus 3D
Год выпуска: 2012
Страна: США
Жанр: ужасы, фантастика, боевик, трейлер
Продолжительность: 00:02:35
Перевод: Профессиональный (дублированный)
Русские субтитры: нет
Режиссер на русском: Ридли Скотт.
В ролях: Майкл Фассбендер, Шарлиз Терон, Идрис Эльба, Гай Пирс...
Описание: В поисках сакрального знания группа ученых отправляется в самые темные и неизведанные чертоги вселенной. Именно там, в отдаленных мирах, находясь на пределе своих умственных и физических возможностей, им предстоит вступить в безжалостную схватку за будущее всего человечества…
Качество: HDrip
Контейнер: MKV
Формат 3D: Half OverUnder / Вертикальная анаморфная стереопара
Порядок ракурсов: левый ракурс первый
Видео кодек: x264
Аудио кодек: AC3
Видео: AVC / 1920х1080p / 23.976 fps / 5806 Kbps
Аудио: Русский / AC3 / 6 ch / 448 Kbps / 48 KHz .
MediaInfo
General
Complete name : D:\скачка\torrent\Trailer_Prometheus(3D).edis(3d-tracker.ru).mkv
Format : Matroska
File size : 118 MiB
Duration : 2mn 35s
Overall bit rate : 6 381 Kbps
Movie name : edis(3d-tracker.ru)
Encoded date : UTC 2012-04-03 04:12:21
Writing application : mkvmerge v4.2.0 ('3d-tracker') сборка от Jul 28 2010 18:38:23
Writing library : libebml v1.0.0 + libmatroska v1.0.0
Video
ID : 1
Format : AVC
Format/Info : Advanced Video Codec
Format profile : High@L4.1
Format settings, CABAC : Yes
Format settings, ReFrames : 4 frames
Muxing mode : Container profile=Unknown@4.1
Codec ID : V_MPEG4/ISO/AVC
Duration : 2mn 35s
Bit rate : 5 806 Kbps
Width : 1 920 pixels
Height : 1 080 pixels
Display aspect ratio : 16:9
Frame rate : 23.976 fps
Resolution : 24 bits
Colorimetry : 4:2:0
Scan type : Progressive
Bits/(Pixel*Frame) : 0.117
Stream size : 107 MiB (91%)
Title : edis(3d-tracker.ru)
Writing library : x264 core 116 r2074 2641b9e
Encoding settings : cabac=1 / ref=4 / deblock=1:-3:-3 / analyse=0x3:0x113 / me=umh / subme=9 / psy=1 / psy_rd=1.00:0.15 / mixed_ref=1 / me_range=16 / chroma_me=1 / trellis=2 / 8x8dct=1 / cqm=0 / deadzone=21,11 / fast_pskip=1 / chroma_qp_offset=-3 / threads=6 / sliced_threads=0 / nr=0 / decimate=1 / interlaced=0 / bluray_compat=0 / constrained_intra=0 / bframes=6 / b_pyramid=2 / b_adapt=2 / b_bias=0 / direct=3 / weightb=1 / open_gop=0 / weightp=2 / keyint=230 / keyint_min=23 / scenecut=40 / intra_refresh=0 / rc_lookahead=60 / rc=crf / mbtree=1 / crf=18.0 / qcomp=0.65 / qpmin=0 / qpmax=69 / qpstep=4 / vbv_maxrate=40000 / vbv_bufsize=40000 / crf_max=0.0 / nal_hrd=none / ip_ratio=1.40 / aq=1:0.70
Audio
ID : 2
Format : AC-3
Format/Info : Audio Coding 3
Codec ID : A_AC3
Duration : 2mn 35s
Bit rate mode : Constant
Bit rate : 448 Kbps
Channel(s) : 6 channels
Channel positions : Front: L C R, Surround: L R, LFE
Sampling rate : 48.0 KHz
Stream size : 8.29 MiB (7%)
Title : edis(3d-tracker.ru)
Language : Russian
Скриншоты



Скачать книги и аудио книги через торрент


Вернуться к началу
 Профиль Отправить личное сообщение  
 
   Похожие торренты   Автор   Торрент   Размер 
В этой теме нет новых непрочитанных сообщений. Прометей / Prometheus [фантастика, детектив, приключения, 2012] BDRip-AVC, Dub

salma3

0 | 0

1.46 ГБ

В этой теме нет новых непрочитанных сообщений. Прометей / Prometheus [Фантастика, триллер, приключения, 2012] Blu-ray EUR 1080p, Dub

salma3

0 | 0

44.21 ГБ

В этой теме нет новых непрочитанных сообщений. Прометей / Prometheus [фантастика, триллер, приключения, 2012] Hybrid 1080p, Dub [Open Matte]

salma3

0 | 0

33.7 ГБ

В этой теме нет новых непрочитанных сообщений. Форсаж 9 / Fast & Furious 9 [Боевик, триллер, криминал, 2020] WEBRip 1080p, Dub [Трейлер]

salma3

22 | 1

1018.01 МБ

В этой теме нет новых непрочитанных сообщений. Плохие парни навсегда / Bad Boys for Life [Боевик, триллер, комедия, 2020] WEBRip 1080p, Dub [Трейлер №1]

salma3

0 | 0

671.02 МБ

В этой теме нет новых непрочитанных сообщений. Особь / Species [ужасы, фантастика, боевик, 1995] HDRip-AVC, Dub

salma3

68 | 24

746.14 МБ

В этой теме нет новых непрочитанных сообщений. King's man: Начало / The King's Man [Боевик, комедия, приключения, 2020] WEBRip 1080p, Dub [Трейлер №2]

K15

0 | 1

661.97 МБ


Начать новую тему Ответить на тему  [ 1 сообщение ] 




Для Мосгорсуда, Роскомнадзора и рекламодателей:: rstracker[собака]yandex.ru
cron