COVID-19 - Последняя информация о коронавирусе на сайте Минздрава




Торрент файл
скачать торрент магнет ссылка Добавлен: 07 окт 2012, 21:26
Размер: 6.86 ГБ
Сидеров: 3
Личеров: 3
Автор

СообщениеДобавлено: 07 окт 2012, 21:26 

Не в сети
Аватара пользователя
Дата регистрации:
28 ноя 2010, 22:22
Спасибо: 722 / 5
Сообщения: 2030
Samsung: The Black Eyed Peas (Demo 3D)
Год выпуска: 2010
Страна: USA
Жанр: Hip-hop
Режиссер: pop
Композиции:
1. I Gotta Feeling - Концертный тур группы Black Eyed Peas
2. Imma Be
3. Интервью - Концертный тур группы Black Eyed Peas
Доп. информация:
Анимированное меню на русском языке.
Качество: Blu-Ray 3D - 25
Формат: BDMV
Видео кодек: H.264
Аудио кодек: AC3
Видео: 1920x1080 [1080p], 16:9, ~24,3 Mbps, 23.976 fps
Аудио: Dolby Digital 2.0 (48 khz., 256 kbps.).
Скриншоты
BDInfo
Disc Title: SAMSUNG_3D_BEP
Disc Size: 7 364 762 864 bytes
Protection: AACS
BD-Java: No
BDInfo: 0.5.3
Notes:
BDINFO HOME:
Cinema Squid
http://www.cinemasquid.com/blu-ray/tools/bdinfo
INCLUDES FORUMS REPORT FOR:
AVS Forum Blu-ray Audio and Video Specifications Thread
http://www.avsforum.com/avs-vb/showthread.php?t=1155731
********************
PLAYLIST: 01201.MPLS
********************
<--- BEGIN FORUMS PASTE --->Код:
Код:
Total   Video
Title                                                           Codec   Length  Movie Size      Disc Size       Bitrate Bitrate Main Audio Track                          Secondary Audio Track
-----                                                           ------  ------- --------------  --------------  ------- ------- ------------------                        ---------------------
01201.MPLS                                                      AVC     0:04:41 948 817 920     7 364 762 864   27,01   25,49   DD AC3 2.0 256Kbps

Код:
Код:
DISC INFO:
Disc Title:     SAMSUNG_3D_BEP
Disc Size:      7 364 762 864 bytes
Protection:     AACS
BD-Java:        No
BDInfo:         0.5.3
PLAYLIST REPORT:
Name:                   01201.MPLS
Length:                 0:04:41 (h:m:s)
Size:                   948 817 920 bytes
Total Bitrate:          27,01 Mbps
VIDEO:
Codec                   Bitrate             Description
-----                   -------             -----------
MPEG-4 AVC Video        25488 kbps          1080p / 23,976 fps / 16:9 / High Profile 4.1
AUDIO:
Codec                           Language        Bitrate         Description
-----                           --------        -------         -----------
Dolby Digital Audio             English         256 kbps        2.0 / 48 kHz / 256 kbps / DN -16dB
FILES:
Name            Time In         Length          Size            Total Bitrate
----            -------         ------          ----            -------------
00008.M2TS      0:00:00.000     0:04:40.029     948 701 184     27 103
00004.M2TS      0:04:40.029     0:00:01.001     116 736         933
CHAPTERS:
Number          Time In         Length          Avg Video Rate  Max 1-Sec Rate  Max 1-Sec Time  Max 5-Sec Rate  Max 5-Sec Time  Max 10Sec Rate  Max 10Sec Time  Avg Frame Size  Max Frame Size  Max Frame Time
------          -------         ------          --------------  --------------  --------------  --------------  --------------  --------------  --------------  --------------  --------------  --------------
1               0:00:00.000     0:04:40.029     25 579 kbps     37 545 kbps     00:03:44.599    32 300 kbps     00:03:57.904    31 406 kbps     00:03:42.680    133 335 bytes   467 530 bytes   00:04:19.175
2               0:04:40.029     0:00:01.000     93 kbps         0 kbps          00:00:00.000    0 kbps          00:00:00.000    0 kbps          00:00:00.000    506 bytes       830 bytes       00:04:40.154
STREAM DIAGNOSTICS:
File            PID             Type            Codec           Language                Seconds                 Bitrate                 Bytes           Packets
----            ---             ----            -----           --------                --------------          --------------          -------------   -----
00008.M2TS      4113 (0x1011)   0x1B            AVC                                     279,946                 25 586                  895 341 967     4 869 928
00008.M2TS      4352 (0x1100)   0x81            AC3             eng (English)           279,946                 256                     8 965 120       52 530
00004.M2TS      4113 (0x1011)   0x1B            AVC                                     0,918                   110                     12 567          77

<---- END FORUMS PASTE ---->
QUICK SUMMARY:
Disc Title: SAMSUNG_3D_BEP
Disc Size: 7 364 762 864 bytes
Protection: AACS
BD-Java: No
Playlist: 01201.MPLS
Size: 948 817 920 bytes
Length: 0:04:41
Total Bitrate: 27,01 Mbps
Video: MPEG-4 AVC Video / 25488 kbps / 1080p / 23,976 fps / 16:9 / High Profile 4.1
Audio: English / Dolby Digital Audio / 2.0 / 48 kHz / 256 kbps / DN -16dB
********************
PLAYLIST: 00004.MPLS
********************
<--- BEGIN FORUMS PASTE --->Код:
Код:
Total   Video
Title                                                           Codec   Length  Movie Size      Disc Size       Bitrate Bitrate Main Audio Track                          Secondary Audio Track
-----                                                           ------  ------- --------------  --------------  ------- ------- ------------------                        ---------------------
00004.MPLS                                                      AVC     0:04:40 948 701 184     7 364 762 864   27,10   25,58   DD AC3 2.0 256Kbps

Код:
Код:
DISC INFO:
Disc Title:     SAMSUNG_3D_BEP
Disc Size:      7 364 762 864 bytes
Protection:     AACS
BD-Java:        No
BDInfo:         0.5.3
PLAYLIST REPORT:
Name:                   00004.MPLS
Length:                 0:04:40 (h:m:s)
Size:                   948 701 184 bytes
Total Bitrate:          27,10 Mbps
VIDEO:
Codec                   Bitrate             Description
-----                   -------             -----------
MPEG-4 AVC Video        25578 kbps          1080p / 23,976 fps / 16:9 / High Profile 4.1
AUDIO:
Codec                           Language        Bitrate         Description
-----                           --------        -------         -----------
Dolby Digital Audio             English         256 kbps        2.0 / 48 kHz / 256 kbps / DN -16dB
FILES:
Name            Time In         Length          Size            Total Bitrate
----            -------         ------          ----            -------------
00008.M2TS      0:00:00.000     0:04:40.029     948 701 184     27 103
CHAPTERS:
Number          Time In         Length          Avg Video Rate  Max 1-Sec Rate  Max 1-Sec Time  Max 5-Sec Rate  Max 5-Sec Time  Max 10Sec Rate  Max 10Sec Time  Avg Frame Size  Max Frame Size  Max Frame Time
------          -------         ------          --------------  --------------  --------------  --------------  --------------  --------------  --------------  --------------  --------------  --------------
1               0:00:00.000     0:04:40.029     25 578 kbps     37 545 kbps     00:03:44.599    32 300 kbps     00:03:57.904    31 406 kbps     00:03:42.680    133 354 bytes   467 530 bytes   00:04:19.175
STREAM DIAGNOSTICS:
File            PID             Type            Codec           Language                Seconds                 Bitrate                 Bytes           Packets
----            ---             ----            -----           --------                --------------          --------------          -------------   -----
00008.M2TS      4113 (0x1011)   0x1B            AVC                                     279,946                 25 586                  895 341 967     4 869 928
00008.M2TS      4352 (0x1100)   0x81            AC3             eng (English)           279,946                 256                     8 965 120       52 530



Скачать книги и аудио книги через торрент


Вернуться к началу
 Профиль Отправить личное сообщение  
 
   Похожие торренты   Автор   Торрент   Размер 
В этой теме нет новых непрочитанных сообщений. Черный дождь / Black Rain [Боевик, триллер, криминал, 1989] Blu-ray 1080p, Mvo

salma3

0 | 0

42.73 ГБ

В этой теме нет новых непрочитанных сообщений. Черный дождь / Black Rain [Боевик, триллер, криминал, 1989] Blu-ray 1080p, Mvo

salma3

0 | 0

42.73 ГБ

В этой теме нет новых непрочитанных сообщений. Черный дождь / Black Rain [боевик, триллер, драма, 1989] Blu-ray 1080p, Mvo

salma3

0 | 0

28.63 ГБ

В этой теме нет новых непрочитанных сообщений. Чёрная Пантера / Black Panther [Фантастика, боевик, приключения, 2018] Blu-Ray 1080p, Dub [3D-Video] [Лицензия]

salma3

32 | 79

44.3 ГБ

В этой теме нет новых непрочитанных сообщений. Люди в черном: Интернэшнл / Men in Black International [фантастика, боевик, комедия, 2019] Blu-ray EUR 1080p, Dub [Лицензия]

salma3

0 | 0

40.25 ГБ

В этой теме нет новых непрочитанных сообщений. Легион / Legion [ужасы, фэнтези, боевик, 2010] Blu-ray 1080p, Dub

salma3

11 | 4

34.81 ГБ

В этой теме нет новых непрочитанных сообщений. VA - The Hits Album: The 90s Album [4CD] [Pop, Rock, Hip-Hop, R'n'B, 2019] MP3 / 320 kbps

K15

3 | 0

735.06 МБ


Начать новую тему Ответить на тему  [ 1 сообщение ] 




Для Мосгорсуда, Роскомнадзора и рекламодателей:: rstracker[собака]yandex.ru
cron