COVID-19 - Последняя информация о коронавирусе на сайте Минздрава




Торрент файл
скачать торрент магнет ссылка Добавлен: 07 окт 2012, 21:25
Размер: 827.99 МБ
Сидеров: 3
Личеров: 3
Автор

СообщениеДобавлено: 07 окт 2012, 21:25 

Не в сети
Аватара пользователя
Дата регистрации:
28 ноя 2010, 22:22
Спасибо: 722 / 5
Сообщения: 2030
Прогулка по ботаническому саду ТНУ в 3D (часть 1)
Год выпуска: 2011
Страна: Украина
Жанр: Любительское видео
Продолжительность: 00:19:10
Перевод: Не требуется
Русские субтитры: нет
Описание: Фото сессия растительности в ботаническом саду ТНУ им.В.И.Вернадского (СГУ). Фотографии собраны в видео файл для просмотра на телевизорах поддерживающих функцию 3D.
Видео 100% можно смотреть на телевизоре Samsung UE-40 C7000 - проверено.
Качество: HDTV
Контейнер: AVI
Формат 3D: Half SideBySide / Горизонтальная анаморфная стереопара
Порядок ракурсов: левый ракурс первый
Видео кодек: xVid
Аудио кодек: MP3
Видео: XVID 5907 Kbps 1920х1080 16:9 25.000 fps
Аудио: MP3 2 channels 128 Kbps 44.1 KHz
MediaInfo
General
Complete name : 3D_Botan_sad_Universitet_Simferopol_part1.avi
Format : AVI
Format/Info : Audio Video Interleave
File size : 828 MiB
Duration : 19mn 10s
Overall bit rate : 6 040 Kbps
Video
ID : 0
Format : MPEG-4 Visual
Format profile : Advanced Simple@L5
Format settings, BVOP : 2
Format settings, QPel : No
Format settings, GMC : No warppoints
Format settings, Matrix : Default (H.263)
Muxing mode : Packed bitstream
Codec ID : XVID
Codec ID/Hint : XviD
Duration : 19mn 10s
Bit rate : 5 907 Kbps
Width : 1 920 pixels
Height : 1 080 pixels
Display aspect ratio : 16:9
Frame rate : 25.000 fps
Color space : YUV
Chroma subsampling : 4:2:0
Bit depth : 8 bits
Scan type : Progressive
Compression mode : Lossy
Bits/(Pixel*Frame) : 0.114
Stream size : 810 MiB (98%)
Writing library : XviD 64
Audio
ID : 1
Format : MPEG Audio
Format version : Version 1
Format profile : Layer 3
Mode : Joint stereo
Mode extension : MS Stereo
Codec ID : 55
Codec ID/Hint : MP3
Duration : 19mn 9s
Bit rate mode : Constant
Bit rate : 128 Kbps
Channel(s) : 2 channels
Sampling rate : 44.1 KHz
Compression mode : Lossy
Stream size : 17.5 MiB (2%)
Alignment : Aligned on interleaves
Interleave, duration : 1000 ms (25.00 video frames)
Скриншоты






Скачать книги и аудио книги через торрент


Вернуться к началу
 Профиль Отправить личное сообщение  
 
   Похожие торренты   Автор   Торрент   Размер 
В этой теме нет новых непрочитанных сообщений. Смерть во французском саду / Péril en la demeure [драма, криминал, 1985] BDRip, Mvo

salma3

0 | 0

1.46 ГБ

В этой теме нет новых непрочитанных сообщений. Александра Комиссарова - Любительское фото Русской девушки [1663x2495] [1419шт.] (2019) JPG

BaLaMuT

38 | 0

413.89 МБ

В этой теме нет новых непрочитанных сообщений. Большая прогулка / La grande vadrouille [Комедия, Приключения, Военный, 1966] BDRip 720p, Dub

salma3

0 | 0

7.28 ГБ

В этой теме нет новых непрочитанных сообщений. Прогулка по Риму / Una gita a Roma [приключения, семейный, 2017] WEB-DL 1080p, Mvo

salma3

0 | 0

4.14 ГБ

В этой теме нет новых непрочитанных сообщений. Сумерки. Сага. Рассвет: Часть 1 / The Twilight Saga: Breaking Dawn - Part 1 [фэнтези, драма, мелодрама, 2011] DVD5, Dub [Open Matte]

K15

0 | 0

4.37 ГБ

В этой теме нет новых непрочитанных сообщений. Nat Geo Wild: Захватчики / The Invaders [01-06] (2010-2011) HDTV 1080i | P1

salma3

4 | 9

13.57 ГБ

В этой теме нет новых непрочитанных сообщений. Nat Geo Wild: Царство океанов / Kingdom of the oceans [01-04] (2011) HDTV 1080i | P1

salma3

0 | 0

9.04 ГБ


Начать новую тему Ответить на тему  [ 1 сообщение ] 




Для Мосгорсуда, Роскомнадзора и рекламодателей:: rstracker[собака]yandex.ru
cron