COVID-19 - Последняя информация о коронавирусе на сайте Минздрава




Торрент файл
скачать торрент магнет ссылка Добавлен: 07 окт 2012, 21:25
Размер: 255.39 МБ
Сидеров: 2
Личеров: 3
Автор

СообщениеДобавлено: 07 окт 2012, 21:25 

Не в сети
Аватара пользователя
Дата регистрации:
28 ноя 2010, 22:22
Спасибо: 722 / 5
Сообщения: 2030
Прогулка по ботаническому саду ТНУ в 3D (часть 2)
Год выпуска: 2011
Страна: Украина
Жанр: Любительское видео
Продолжительность: 00:06:45
Перевод: Не требуется
Русские субтитры: нет
Описание: Фото сессия растительности (часть 2) в ботаническом саду ТНУ им.В.И.Вернадского (СГУ). Фотографии собраны в видео файл для просмотра на телевизорах поддерживающих функцию 3D.
Видео 100% можно смотреть на телевизоре Samsung UE-40 C7000 - проверено.
Прогулка по ботаническому саду ТНУ в 3D (часть 1)
Качество: HDTV
Контейнер: AVI
Формат 3D: Half SideBySide / Горизонтальная анаморфная стереопара
Порядок ракурсов: левый ракурс первый
Видео кодек: xVid
Аудио кодек: MP3
Видео: XVID 5157Kbps 1920х1080 16:9 25.000 fps
Аудио: MP3 2 channels 128 Kbps 44.1 KHz
MediaInfo
General
Complete name : 3D_Botan_sad_Universitet_Simferopol_part2.avi
Format : AVI
Format/Info : Audio Video Interleave
File size : 255 MiB
Duration : 6mn 45s
Overall bit rate : 5 290 Kbps
Video
ID : 0
Format : MPEG-4 Visual
Format profile : Advanced Simple@L5
Format settings, BVOP : 2
Format settings, QPel : No
Format settings, GMC : No warppoints
Format settings, Matrix : Default (H.263)
Muxing mode : Packed bitstream
Codec ID : XVID
Codec ID/Hint : XviD
Duration : 6mn 45s
Bit rate : 5 157 Kbps
Width : 1 920 pixels
Height : 1 080 pixels
Display aspect ratio : 16:9
Frame rate : 25.000 fps
Color space : YUV
Chroma subsampling : 4:2:0
Bit depth : 8 bits
Scan type : Progressive
Compression mode : Lossy
Bits/(Pixel*Frame) : 0.099
Stream size : 249 MiB (97%)
Writing library : XviD 64
Audio
ID : 1
Format : MPEG Audio
Format version : Version 1
Format profile : Layer 3
Mode : Joint stereo
Mode extension : MS Stereo
Codec ID : 55
Codec ID/Hint : MP3
Duration : 6mn 45s
Bit rate mode : Constant
Bit rate : 128 Kbps
Channel(s) : 2 channels
Sampling rate : 44.1 KHz
Compression mode : Lossy
Stream size : 6.16 MiB (2%)
Alignment : Aligned on interleaves
Interleave, duration : 1000 ms (25.00 video frames)
Скриншоты






Скачать книги и аудио книги через торрент


Вернуться к началу
 Профиль Отправить личное сообщение  
 
   Похожие торренты   Автор   Торрент   Размер 
В этой теме нет новых непрочитанных сообщений. Смерть во французском саду / Péril en la demeure [драма, криминал, 1985] BDRip, Mvo

salma3

0 | 0

1.46 ГБ

В этой теме нет новых непрочитанных сообщений. Александра Комиссарова - Любительское фото Русской девушки [1663x2495] [1419шт.] (2019) JPG

BaLaMuT

38 | 0

413.89 МБ

В этой теме нет новых непрочитанных сообщений. Прогулка по Риму / Una gita a Roma [приключения, семейный, 2017] WEB-DL 1080p, Mvo

salma3

0 | 0

4.14 ГБ

В этой теме нет новых непрочитанных сообщений. Большая прогулка / La grande vadrouille [Комедия, Приключения, Военный, 1966] BDRip 720p, Dub

salma3

0 | 0

7.28 ГБ

В этой теме нет новых непрочитанных сообщений. Сумерки. Сага. Рассвет: Часть 1 / The Twilight Saga: Breaking Dawn - Part 1 [фэнтези, драма, мелодрама, 2011] DVD5, Dub [Open Matte]

K15

0 | 0

4.37 ГБ

В этой теме нет новых непрочитанных сообщений. Полу-Нельсон / Half Nelson [драма, 2006] BDRip, Dvo

salma3

0 | 0

1.45 ГБ

В этой теме нет новых непрочитанных сообщений. Полусвет / Half Light [Триллер, драма, детектив, 2006] BDRemux 1080p, Mvo

salma3

0 | 1

24.39 ГБ


Начать новую тему Ответить на тему  [ 1 сообщение ] 




Для Мосгорсуда, Роскомнадзора и рекламодателей:: rstracker[собака]yandex.ru
cron