COVID-19 - Последняя информация о коронавирусе на сайте Минздрава




Торрент файл
скачать торрент магнет ссылка Добавлен: 07 окт 2012, 21:25
Размер: 144.33 МБ
Сидеров: 39
Личеров: 12
Автор

СообщениеДобавлено: 07 окт 2012, 21:25 

Не в сети
Аватара пользователя
Дата регистрации:
28 ноя 2010, 22:22
Спасибо: 722 / 5
Сообщения: 2030
G.NA - Top Girl
Год выпуска: 2011
Страна: Корея
Жанр: Музыка
Продолжительность: 00:03:52
Описание: Музыкальный клип корейской girls-группы G.NA (похоже, что с какого-то демо диска LG)
Доп. информация: Демонстрация эффектных вылетов из экрана (иногда "глазовыворачивающих").
К сожалению, качество "ю-тюбовское" (как и в "LG 3D DEMO Global").
Этот ролик (и другие подобные) уже появился в лучшем качестве - http://rutracker.org/forum/viewtopic.php?t=4117696

Проверено на встроенном плейере ТВ Samsung UE-C7000

Качество: HDrip
Контейнер: mp4
Формат 3D: Half SideBySide / Горизонтальная анаморфная стереопара
Порядок ракурсов: левый ракурс первый
Видео кодек: AVC
Аудио кодек: AAC
Видео: AVC / 1920х1080p / 23,976 fps / 5044 Kbps
Аудио: AAC / 44.1 KHz / 2 ch / 151 Kbps
MediaInfo
General
Complete name : F:\Downloads\G.NA-TopGirl(3d)halfSBS.mp4
Format : MPEG-4
Format profile : Base Media / Version 2
Codec ID : mp42
File size : 144 MiB
Duration : 3mn 52s
Overall bit rate : 5 200 Kbps
Encoded date : UTC 2011-09-20 20:30:04
Tagged date : UTC 2011-09-20 20:30:04
gsst : 0
gstd : 232815
gssd : B4A7DDAA8MH1316766670442047
gshh : v8.cache6.c.youtube.com
Video
ID : 1
Format : AVC
Format/Info : Advanced Video Codec
Format profile : High@L4.0
Format settings, CABAC : Yes
Format settings, ReFrames : 1 frame
Codec ID : avc1
Codec ID/Info : Advanced Video Coding
Duration : 3mn 52s
Bit rate mode : Variable
Bit rate : 5 044 Kbps
Maximum bit rate : 14.8 Mbps
Width : 1 920 pixels
Height : 1 080 pixels
Display aspect ratio : 16:9
Frame rate mode : Variable
Frame rate : 23.976 fps
Minimum frame rate : 23.810 fps
Maximum frame rate : 24.390 fps
Color space : YUV
Chroma subsampling : 4:2:0
Bit depth : 8 bits
Scan type : Progressive
Bits/(Pixel*Frame) : 0.101
Stream size : 140 MiB (97%)
Tagged date : UTC 2011-09-20 20:30:04
Audio
ID : 2
Format : AAC
Format/Info : Advanced Audio Codec
Format version : Version 4
Format profile : LC
Codec ID : 40
Duration : 3mn 52s
Bit rate mode : Variable
Bit rate : 151 Kbps
Maximum bit rate : 229 Kbps
Channel(s) : 2 channels
Channel positions : Front: L R
Sampling rate : 44.1 KHz
Compression mode : Lossy
Stream size : 4.18 MiB (3%)
Title : IsoMedia File Produced by Google, 5-11-2011
Encoded date : UTC 2011-09-20 20:30:04
Tagged date : UTC 2011-09-20 20:30:04
Скриншоты



Скачать книги и аудио книги через торрент


Вернуться к началу
 Профиль Отправить личное сообщение  
 
   Похожие торренты   Автор   Торрент   Размер 
В этой теме нет новых непрочитанных сообщений. Навсегда моя девушка / Forever My Girl [драма, мелодрама, музыка, 2018] HDRip, Mvo

salma3

81 | 38

1.46 ГБ

В этой теме нет новых непрочитанных сообщений. Тяжёлая поездка / Hevi reissu [Комедия, музыка, 2018] HDRip-AVC, Mvo

salma3

0 | 0

1.52 ГБ

В этой теме нет новых непрочитанных сообщений. Призрак оперы / The Phantom of the Opera [Ужасы, драма, музыка, 1989] HDRip-AVC, Mvo

salma3

0 | 0

743.61 МБ

В этой теме нет новых непрочитанных сообщений. [SexArt.com / MetArt.com] Nelly Kent - Your Hands On My Skin (26.08.2018) [Blow Job, Boy-Girl, Brunette, Cum Shot, Cunnilingus, Fingering, Girl On Top, Indoor, Kissable Feet, Natural Breasts, Oil, Oral Sex, Shaved, Tattoo]

salma3

0 | 0

381.97 МБ

В этой теме нет новых непрочитанных сообщений. Совершенно секретно! / Top Secret! [комедия, музыка, 1984] WEB-DL 1080p, Mvo

salma3

0 | 0

11.4 ГБ

В этой теме нет новых непрочитанных сообщений. [SexArt.com / MetArt.com] Cherry Kiss - Jealousy 4 (22.08.2018) [Blonde, Blow Job, Boy-Girl, Climax, Collections, Couple Sex, Cum Shot, Cunnilingus, Girl On Top, Indoor, Jealousy, Natural Breasts, Oral Sex, Penetration, Shaved]

salma3

38 | 13

291.09 МБ

В этой теме нет новых непрочитанных сообщений. Совершенно секретно! / Top Secret! [комедия, музыка, 1984] WEB-DLRip 720p, Mvo

salma3

0 | 0

4.28 ГБ


Начать новую тему Ответить на тему  [ 1 сообщение ] 




Для Мосгорсуда, Роскомнадзора и рекламодателей:: rstracker[собака]yandex.ru
cron