COVID-19 - Последняя информация о коронавирусе на сайте Минздрава




Торрент файл
скачать торрент магнет ссылка Добавлен: 07 окт 2012, 21:24
Размер: 3.87 ГБ
Сидеров: 2
Личеров: 3
Автор

СообщениеДобавлено: 07 окт 2012, 21:24 

Не в сети
Аватара пользователя
Дата регистрации:
28 ноя 2010, 22:22
Спасибо: 722 / 5
Сообщения: 2030
Моцарт: Квинтет для кларнета, K.581 / Horn Quintet, K.407 / String Quartet, K.169
Год выпуска: 2010
Страна: США Филадельфия
Жанр: Классическая музыка
Продолжительность: 01:03:00
Перевод: Не требуется
Русские субтитры: нет
Исполнители: Corey Klein (Horn), Ruokai Chen (Clarinet), The Old City String Quartet
Описание: Один из 3D-альбомов музыки ™, который мы сняли в в июне 2010 года. Победители конкурса - струнный квартет Старый Город. Эта молодая группа состоит из недавних выпускников престижных Институтов музыки Кертиса в Филадельфии. Их молодость и энергия удивительны. Это один из первых классических проектов для Blu-ray 3D.К квартету присоединились два парня, кларнетист Ruokai Чен и труба Кори Клейна.
Музыка Моцарта является знаком большинству любителей музыки, и, хотя очень доступна для всех, полна убедительных гармонической и композиционной сложности.
Этот диск был снят с использованием 3D-камер и совместимых Blu-ray 3D ™, но полностью совместим с 2D-телевизороми и аудио оборудованием.
Качество: BDrip
Контейнер: MKV
Формат 3D: Half OverUnder / Вертикальная анаморфная стереопара
Порядок ракурсов: левый ракурс первый
Видео кодек: x264
Аудио кодек: AC3
Видео: AVC / 1280х720p / 59.94 fps / 8,126 Мbps
Аудио: Музыка / AC3 / 48 KHz / 5.1 ch / 448 Kbps (оригинал)
MediaInfo
General
Complete name : D:\скачка\torrent\Mozart _Clarinet_Quintet _K._5.edis.3d-tracker.ru.mkv
Format : Matroska
File size : 3.87 GiB
Duration : 1h 3mn
Overall bit rate : 8 748 Kbps
Movie name : Mozart Clarinet Quintet K. 5.edis.3d-tracker.ru.Bluray3DRip
Encoded date : UTC 2012-07-28 18:16:12
Writing application : mkvmerge v4.2.0 ('3d-tracker') сборка от Jul 28 2010 18:38:23
Writing library : libebml v1.0.0 + libmatroska v1.0.0
Video
ID : 1
Format : AVC
Format/Info : Advanced Video Codec
Format profile : High@L4.1
Format settings, CABAC : Yes
Format settings, ReFrames : 2 frames
Muxing mode : Container profile=Unknown@4.1
Codec ID : V_MPEG4/ISO/AVC
Duration : 1h 3mn
Bit rate : 8 126 Kbps
Width : 1 280 pixels
Height : 720 pixels
Display aspect ratio : 16:9
Frame rate : 59.940 fps
Resolution : 24 bits
Colorimetry : 4:2:0
Scan type : Progressive
Bits/(Pixel*Frame) : 0.147
Stream size : 3.59 GiB (93%)
Title : edis.3d-tracker.ru
Writing library : x264 core
Audio
ID : 2
Format : AC-3
Format/Info : Audio Coding 3
Codec ID : A_AC3
Duration : 1h 3mn
Bit rate mode : Constant
Bit rate : 448 Kbps
Channel(s) : 6 channels
Channel positions : Front: L C R, Surround: L R, LFE
Sampling rate : 48.0 KHz
Stream size : 203 MiB (5%)
Title : edis.3d-tracker.ru
Menu
00:00:00.000 : en:(01)00:00:00:000
Скриншоты



Скачать книги и аудио книги через торрент


Вернуться к началу
 Профиль Отправить личное сообщение  
 
   Похожие торренты   Автор   Торрент   Размер 
В этой теме нет новых непрочитанных сообщений. Распутный квартет / The Lickerish Quartet [драма, 1970] BDRip, Avo

salma3

0 | 0

1.45 ГБ

В этой теме нет новых непрочитанных сообщений. Распутный квартет / The Lickerish Quartet [драма, 1970] BDRip, Avo

salma3

0 | 0

1.45 ГБ

В этой теме нет новых непрочитанных сообщений. Лапочка / Honey [Драма, мелодрама, музыка, 2003] BDRip-AVC, Dub

salma3

2 | 0

745.74 МБ

В этой теме нет новых непрочитанных сообщений. [BigWetButts.com / Brazzers.com] Jessica Rex - Porn Puppet On A String (06.12.2018) [Anal, Brunette, Caucasian, Corset, Fishnet Stockings, G-String, Garter Belt, High Heels, Leather, Natural Tits, Outie Pussy, Small Ass, Small Tits, Trimmed

salma3

0 | 0

422.27 МБ

В этой теме нет новых непрочитанных сообщений. Сумасшедшее сердце / Crazy Heart [Драма, мелодрама, музыка, 2009] BDRip-AVC, Dub

salma3

0 | 0

2.87 ГБ

В этой теме нет новых непрочитанных сообщений. Богемская рапсодия / Bohemian Rhapsody [Драма, биография, музыка, 2018] BDRip-AVC, Dub

salma3

1 | 0

3.46 ГБ

В этой теме нет новых непрочитанных сообщений. Голая Джульетта / Juliet, Naked [мелодрама, комедия, музыка, 2018] BDRip-AVC, Mvo [iTunes]

salma3

0 | 0

1.79 ГБ


Начать новую тему Ответить на тему  [ 1 сообщение ] 




Для Мосгорсуда, Роскомнадзора и рекламодателей:: rstracker[собака]yandex.ru
cron