COVID-19 - Последняя информация о коронавирусе на сайте Минздрава




Торрент файл
скачать торрент магнет ссылка Добавлен: 07 окт 2012, 21:23
Размер: 32.77 ГБ
Сидеров: 2
Личеров: 3
Автор

СообщениеДобавлено: 07 окт 2012, 21:23 

Не в сети
Аватара пользователя
Дата регистрации:
28 ноя 2010, 22:22
Спасибо: 722 / 5
Сообщения: 2030
~Tracklist~Pieces of SEVEN
Rule
Sunrise ?LOVE is ALL?
identity
In The Corner
HOPE or PAIN
GREEN
evolution
SIGNAL
rollin'
Sparkle
NEXT LEVEL
Humming7/4
Boys & Girls
MY ALL


Качество: Blu-Ray Disc
Контейнер: ISO
Формат 3D: Blu-ray3D
Видео кодек: MVC
Аудио кодек: PCM,DTS
Видео: 1920 x 1080 (16:9); 23.976 fps ; ~31.2 Mbps
Аудио: PCM (2304 Kbps; 2 ch; 48 kHz), DTS (48.0 KHz; 1 561 Kbps; 6 channels)
MediaInfo
Код:
Код:
Format                           : BDAV
Format/Info                      : Blu-ray Video
File size                        : 14.1 GiB
Duration                         : 55mn 16s
Overall bit rate                 : 36.5 Mbps
Maximum Overall bit rate         : 41.7 Mbps
Video
ID                               : 4113 (0x1011)
Menu ID                          : 1 (0x1)
Format                           : AVC
Format/Info                      : Advanced Video Codec
Format profile                   : High@L4.1
Format settings, CABAC           : Yes
Format settings, ReFrames        : 4 frames
Format settings, GOP             : M=1, N=24
Codec ID                         : 27
Duration                         : 55mn 16s
Bit rate mode                    : Variable
Bit rate                         : 31.2 Mbps
Maximum bit rate                 : 30.0 Mbps
Width                            : 1 920 pixels
Height                           : 1 080 pixels
Display aspect ratio             : 16:9
Frame rate                       : 23.976 fps
Color space                      : YUV
Chroma subsampling               : 4:2:0
Bit depth                        : 8 bits
Scan type                        : Progressive
Bits/(Pixel*Frame)               : 0.627
Stream size                      : 12.0 GiB (85%)
Audio #1
ID                               : 4352 (0x1100)
Menu ID                          : 1 (0x1)
Format                           : PCM
Format settings, Endianness      : Big
Format settings, Sign            : Signed
Muxing mode                      : Blu-ray
Codec ID                         : 128
Duration                         : 55mn 16s
Bit rate mode                    : Constant
Bit rate                         : 2 304 Kbps
Channel(s)                       : 2 channels
Channel positions                : Front: L R
Sampling rate                    : 48.0 KHz
Bit depth                        : 24 bits
Stream size                      : 911 MiB (6%)
Audio #2
ID                               : 4353 (0x1101)
Menu ID                          : 1 (0x1)
Format                           : DTS
Format/Info                      : Digital Theater Systems
Format profile                   : MA / Core
Muxing mode                      : Stream extension
Codec ID                         : 134
Duration                         : 55mn 16s
Bit rate mode                    : Variable
Bit rate                         : 1 561 Kbps / 1 510 Kbps
Channel(s)                       : 6 channels
Channel positions                : Front: L C R, Side: L R, LFE
Sampling rate                    : 48.0 KHz
Bit depth                        : 24 bits
Compression mode                 : Lossless / Lossy



Скачать книги и аудио книги через торрент


Вернуться к началу
 Профиль Отправить личное сообщение  
 
   Похожие торренты   Автор   Торрент   Размер 
В этой теме нет новых непрочитанных сообщений. Красный воробей / Red Sparrow [триллер, драма, детектив, 2018] Blu-ray Disc 1080p, Dub [Лицензия]

salma3

5 | 1

44.05 ГБ

В этой теме нет новых непрочитанных сообщений. Крик в общаге / Sorority Row [ужасы, триллер, 2009] Blu-Ray 1080p, Dub

salma3

0 | 0

23.04 ГБ

В этой теме нет новых непрочитанных сообщений. Тело Дженнифер / Jennifer's Body [Ужасы, триллер, комедия, 2009] Blu-ray 1080p, Dub

salma3

0 | 12

44.39 ГБ

В этой теме нет новых непрочитанных сообщений. Бегущий в лабиринте: Лекарство от смерти / Maze Runner: The Death Cure [фантастика, боевик, триллер, 2018] Blu-ray Disc 1080p EUR, Dub [Лицензия]

salma3

0 | 0

44.23 ГБ

В этой теме нет новых непрочитанных сообщений. Молодая Виктория / The Young Victoria [драма, мелодрама, биография, 2009] Blu-ray 1080p, Dub [Лицензия]

salma3

0 | 0

31.64 ГБ

В этой теме нет новых непрочитанных сообщений. Идеальный побег / A Perfect Getaway [триллер, детектив, приключения, 2009] Blu-ray 1080p, Dub [Лицензия] [Театральная версия]

salma3

0 | 0

32.12 ГБ

В этой теме нет новых непрочитанных сообщений. Химера / Splice [ужасы, фантастика, 2009] Blu-ray, Dub [Лицензия]

salma3

22 | 28

18.99 ГБ


Начать новую тему Ответить на тему  [ 1 сообщение ] 




Для Мосгорсуда, Роскомнадзора и рекламодателей:: rstracker[собака]yandex.ru
cron