COVID-19 - Последняя информация о коронавирусе на сайте Минздрава




Торрент файл
скачать торрент магнет ссылка Добавлен: 07 окт 2012, 21:23
Размер: 375.32 МБ
Сидеров: 10
Личеров: 5
Автор

СообщениеДобавлено: 07 окт 2012, 21:23 

Не в сети
Аватара пользователя
Дата регистрации:
28 ноя 2010, 22:22
Спасибо: 722 / 5
Сообщения: 2030

Пираты Карибского моря: На странных берегах 3Д / Pirates of the Caribbean 4: On Stranger Tides 3D
Тип раздаваемого материала: трейлер
Год выпуска фильма: 2011
Страна: США
Жанр: приключения
Продолжительность: 00:02:22
Перевод: Профессиональный (полное дублирование)
Русские субтитры: нет
Режиссер: Роб Маршалл / Rob Marshall
В ролях: Джонни Депп, Пенелопа Крус, Иэн МакШейн, Джеффри Раш, Оскар Хаенада, Кевин МакНэлли, Стивен Грэм, Сэм Клафлин, Джемма Уорд, Грег Эллис.
Сценарий: Тед Эллиот, Терри Россио, Стюарт Битти, ...
Продюсер: Джерри Брукхаймер, Джон ДеЛюка, Тед Эллиот, ...
Оператор: Дариуш Вольски
Описание: В новой истории о поисках истины, предательстве, вечной молодости и смертельной опасности капитану Джеку Воробью предстоит столкнуться с женщиной из своего прошлого Анжеликой. До самого конца не будет понятно, связывает ли их настоящая любовь, или же Анжелика искусно притворяется, чтобы вместе с Джеком добраться до таинственного источника вечной молодости. Она силой принуждает капитана Джека Воробья взойти на корабль «Месть Королевы Анны», которым управляет коварный злодей Черная Борода. Наш герой оказывается в ситуации, когда он не знает, чего ему бояться больше — ужасного злодея или же свою давнюю подругу.

Премьера (мир): 18 мая 2011
Премьера (РФ): 19 мая 2011
релиз на DVD Сентябрь 2011, «Уолт Дисней Компани СНГ», ...
релиз на Blu-Ray Сентябрь 2011, «Уолт Дисней Компани СНГ», ...
Качество: BDrip
Формат: MKV
Формат 3D: OverUnder / Вертикальная стереопара
Видео кодек: x264
Аудио кодек: ac3
Видео: MPEG4 Video (H264) 1920x1600 23.98fps 20.8 Mbps bpp: 0.283
Аудио 1: Russian : ac3 48000Hz 6ch 448 kbps
Аудио 2: English : ac3 48000Hz 6ch 448 kbps
me
Format : Matroska
File size : 375 MiB
Duration : 2mn 22s
Overall bit rate : 22.2 Mbps
Encoded date : UTC 2011-03-26 22:21:34
Writing application : mkvmerge v2.9.7 ('Tenderness') built on Jul 1 2009 18:43:35
Writing library : libebml v0.7.7 + libmatroska v0.8.1
Video
ID : 1
Format : AVC
Format/Info : Advanced Video Codec
Format profile : High@L5.1
Format settings, CABAC : Yes
Format settings, ReFrames : 4 frames
Muxing mode : Container profile=Unknown@5.1
Codec ID : V_MPEG4/ISO/AVC
Duration : 2mn 22s
Bit rate : 20.8 Mbps
Width : 1 920 pixels
Height : 1 600 pixels
Display aspect ratio : 1.200
Frame rate : 23.976 fps
Original frame rate : 25.000 fps
Color space : YUV
Chroma subsampling : 4:2:0
Bit depth : 8 bits
Scan type : MBAFF
Bits/(Pixel*Frame) : 0.283
Stream size : 353 MiB (94%)
Writing library : x264 core 114 r1924 08d04a4
Encoding settings : cabac=1 / ref=4 / deblock=1:-2:-2 / analyse=0x3:0x113 / me=umh / subme=7 / psy=1 / psy_rd=1.00:0.15 / mixed_ref=1 / me_range=16 / chroma_me=1 / trellis=2 / 8x8dct=1 / cqm=0 / deadzone=21,11 / fast_pskip=1 / chroma_qp_offset=-3 / threads=6 / sliced_threads=0 / nr=0 / decimate=1 / interlaced=tff / constrained_intra=0 / bframes=6 / b_pyramid=0 / b_adapt=2 / b_bias=0 / direct=3 / weightb=1 / open_gop=0 / weightp=0 / keyint=250 / keyint_min=25 / scenecut=40 / intra_refresh=0 / rc_lookahead=40 / rc=crf / mbtree=1 / crf=18.0 / qcomp=0.60 / qpmin=10 / qpmax=51 / qpstep=4 / ip_ratio=1.40 / aq=1:1.00
Language : English
Audio #1
ID : 2
Format : AC-3
Format/Info : Audio Coding 3
Mode extension : CM (complete main)
Codec ID : A_AC3
Duration : 2mn 22s
Bit rate mode : Constant
Bit rate : 448 Kbps
Channel(s) : 6 channels
Channel positions : Front: L C R, Side: L R, LFE
Sampling rate : 48.0 KHz
Bit depth : 16 bits
Stream size : 7.59 MiB (2%)
Language : Russian
Audio #2
ID : 3
Format : AC-3
Format/Info : Audio Coding 3
Mode extension : CM (complete main)
Codec ID : A_AC3
Duration : 2mn 22s
Bit rate mode : Constant
Bit rate : 448 Kbps
Channel(s) : 6 channels
Channel positions : Front: L C R, Side: L R, LFE
Sampling rate : 48.0 KHz
Bit depth : 16 bits
Stream size : 7.59 MiB (2%)
Language : English
Скриншоты



Скачать книги и аудио книги через торрент


Вернуться к началу
 Профиль Отправить личное сообщение  
 
   Похожие торренты   Автор   Торрент   Размер 
В этой теме нет новых непрочитанных сообщений. Пираты кровавой реки / Pirates of Blood River [Приключения, пираты, драма, 1962] BDRip 1080p, Mvo

salma3

0 | 0

7.66 ГБ

В этой теме нет новых непрочитанных сообщений. Роб Рой / Rob Roy [Приключения, биография, история, 1995] BDRip 1080p, Mvo

salma3

2 | 1

19.61 ГБ

В этой теме нет новых непрочитанных сообщений. Маршалл / Marshall [драма, биография, 2017] BDRip 1080p, Mvo [iTunes]

salma3

0 | 0

8.18 ГБ

В этой теме нет новых непрочитанных сообщений. Маршалл / Marshall [драма, биография, 2017] BDRip 1080p, Mvo [iTunes]

salma3

192 | 70

11.71 ГБ

В этой теме нет новых непрочитанных сообщений. Ледовые пираты / The Ice Pirates [фантастика, боевик, комедия, 1984] BDRip 1080p, Mvo

salma3

0 | 0

5.89 ГБ

В этой теме нет новых непрочитанных сообщений. Роб Рой / Rob Roy [ боевик, приключения, биография, 1995] BDRip 720p, Mvo

salma3

0 | 0

7.15 ГБ

В этой теме нет новых непрочитанных сообщений. Маршалл / Marshall [Драма, биография, 2017] BDRip, Mvo [iTunes]

salma3

0 | 0

745.6 МБ


Начать новую тему Ответить на тему  [ 1 сообщение ] 




Для Мосгорсуда, Роскомнадзора и рекламодателей:: rstracker[собака]yandex.ru
cron