COVID-19 - Последняя информация о коронавирусе на сайте Минздрава




Торрент файл
скачать торрент магнет ссылка Добавлен: 07 окт 2012, 21:22
Размер: 225.95 МБ
Сидеров: 6
Личеров: 3
Автор

СообщениеДобавлено: 07 окт 2012, 21:22 

Не в сети
Аватара пользователя
Дата регистрации:
28 ноя 2010, 22:22
Спасибо: 722 / 5
Сообщения: 2030
Выставка тюльпанов в Никитском ботаническом саду
Год выпуска: 2012
Страна: Крым
Жанр: Любительская съемка
Продолжительность: 00:24:10
Перевод: Не требуется
Русские субтитры: нет
Описание: Одна из частей экскурсии по Никитскому ботаническому саду. Данная часть демонстрация выставки тюльпанов.
Дополнительная информация по релизу: Фотографии собраны в видео файл для просмотра на телевизорах поддерживающих функцию 3D.
Качество: HDTV
Контейнер: AVI
Формат 3D: Half SideBySide / Горизонтальная анаморфная стереопара
Порядок ракурсов: левый ракурс первый
Видео кодек: xVid
Аудио кодек: MP3
Видео: XVID 1 175 Kbps 1920х1080 16:9 25.000 fps
Аудио: MP3 2 channels 128 Kbps 44.1 KHz
Скриншоты



MediaInfo
General
Complete name :3D_TulpanBotan_AnamorfGoriz_22..04.2012.avi
Format : AVI
Format/Info : Audio Video Interleave
File size : 226 MiB
Duration : 24mn 10s
Overall bit rate : 1 307 Kbps
Video
ID : 0
Format : MPEG-4 Visual
Format profile : Advanced Simple@L5
Format settings, BVOP : 2
Format settings, QPel : No
Format settings, GMC : No warppoints
Format settings, Matrix : Default (H.263)
Muxing mode : Packed bitstream
Codec ID : XVID
Codec ID/Hint : XviD
Duration : 24mn 10s
Bit rate : 1 175 Kbps
Width : 1 920 pixels
Height : 1 080 pixels
Display aspect ratio : 16:9
Frame rate : 25.000 fps
Color space : YUV
Chroma subsampling : 4:2:0
Bit depth : 8 bits
Scan type : Progressive
Compression mode : Lossy
Bits/(Pixel*Frame) : 0.023
Stream size : 203 MiB (90%)
Writing library : XviD 64
Audio
ID : 1
Format : MPEG Audio
Format version : Version 1
Format profile : Layer 3
Mode : Joint stereo
Mode extension : MS Stereo
Codec ID : 55
Codec ID/Hint : MP3
Duration : 24mn 7s
Source duration : 24mn 4s
Bit rate mode : Constant
Bit rate : 128 Kbps
Channel(s) : 2 channels
Sampling rate : 44.1 KHz
Compression mode : Lossy
Stream size : 22.0 MiB (10%)
Alignment : Aligned on interleaves
Interleave, duration : 1001 ms (25.03 video frames)



Скачать книги и аудио книги через торрент


Вернуться к началу
 Профиль Отправить личное сообщение  
 
   Похожие торренты   Автор   Торрент   Размер 
В этой теме нет новых непрочитанных сообщений. Любительская русская пара (2018) CamRip

Dievas

406 | 198

261.77 МБ

В этой теме нет новых непрочитанных сообщений. Смерть во французском саду / Péril en la demeure [драма, криминал, 1985] BDRip, Mvo

salma3

0 | 0

1.46 ГБ

В этой теме нет новых непрочитанных сообщений. Amateur 3Some Sex Tapes / Любительская Пленка Втроем (Reality Kings) [2018 г., Amateur, Gonzo, Threesomes, DVDRip]

salma3

0 | 0

2.16 ГБ

В этой теме нет новых непрочитанных сообщений. Nat Geo Wild: Побережье гиен / Hyena coast (2012) HDTV 1080i | P1

salma3

0 | 0

2.21 ГБ

В этой теме нет новых непрочитанных сообщений. Поможем развестись / Jodi Breakers [Мюзикл, мелодрама, комедия, 2012] HDTV 1080р, Avo

salma3

0 | 0

6.44 ГБ

В этой теме нет новых непрочитанных сообщений. Nat Geo Wild: Живой или мертвый / Dead or Alive [01-03] (2012) HDTV 1080i | P1

salma3

0 | 0

6.78 ГБ

В этой теме нет новых непрочитанных сообщений. Nat Geo Wild: Невероятная Африка. Назинга / Extraordinary Africa. Nazinga (2012) HDTV 1080i | P1

salma3

0 | 0

1.11 ГБ


Начать новую тему Ответить на тему  [ 1 сообщение ] 




Для Мосгорсуда, Роскомнадзора и рекламодателей:: rstracker[собака]yandex.ru
cron