COVID-19 - Последняя информация о коронавирусе на сайте Минздрава




Торрент файл
скачать торрент магнет ссылка Добавлен: 07 окт 2012, 21:21
Размер: 899.95 МБ
Сидеров: 11
Личеров: 6
Автор

СообщениеДобавлено: 07 окт 2012, 21:21 

Не в сети
Аватара пользователя
Дата регистрации:
28 ноя 2010, 22:22
Спасибо: 722 / 5
Сообщения: 2030
The Black Eyed Peas - I Gotta Feeling
Год выпуска: 2010
Жанр: Музыка
Продолжительность: 00:03:44
Описание: Клип с Демо БД 3D Samsung 2010 года.
Второй клип с этого БД тут
Доп. информация: Прежде чем качать, посмотрите на битрейт - потянет ли ваша техника!

Проверено на встроенном плейере ТВ Samsung UE-C7000

Качество: BDrip
Контейнер: MKV
Формат 3D: Half OverUnder / Вертикальная анаморфная стереопара
Порядок ракурсов: левый ракурс первый
Видео кодек: x264
Аудио кодек: AC3
Видео: AVC / 1920х1080p / 23.976 fps / 32.6 Mbps
Аудио: AC3 / 2ch / 48 KHz / 256 Kbps
MediaInfo
General
UniqueID : 228708072670537379608322983428365607037 (0xAC0F9293CFCD7A49AB397FFD9171E07D)
Complete name : F:\Downloads\TheBlackEyedPeas-IGottaFeeling-3D.2010.halfOU.AC3-ash61.mkv
Format : Matroska
File size : 900 MiB
Duration : 3mn 44s
Overall bit rate : 33.6 Mbps
Movie name : The Black Eyed Peas - I Gotta Feeling (ash61)
Encoded date : UTC 2011-11-02 23:08:01
Writing application : mkvmerge v3.4.0 ('Rapunzel') сборка от May 15 2010 09:38:20
Writing library : libebml v0.8.0 + libmatroska v0.9.0
Video
ID : 1
Format : AVC
Format/Info : Advanced Video Codec
Format profile : High@L4.1
Format settings, CABAC : Yes
Format settings, ReFrames : 4 frames
Format settings, GOP : M=1, N=16
Codec ID : V_MPEG4/ISO/AVC
Duration : 3mn 44s
Bit rate : 32.6 Mbps
Width : 1 920 pixels
Height : 1 080 pixels
Display aspect ratio : 16:9
Frame rate : 23.976 fps
Color space : YUV
Chroma subsampling : 4:2:0
Bit depth : 8 bits
Scan type : Progressive
Bits/(Pixel*Frame) : 0.657
Stream size : 875 MiB (97%)
Title : Rip by Ash61
Writing library : x264 core 113 r1884 7313bb5
Encoding settings : cabac=1 / ref=4 / deblock=1:-1:-1 / analyse=0x3:0x113 / me=umh / subme=9 / psy=1 / psy_rd=1.00:0.15 / mixed_ref=1 / me_range=16 / chroma_me=1 / trellis=2 / 8x8dct=1 / cqm=0 / deadzone=21,11 / fast_pskip=1 / chroma_qp_offset=-3 / threads=3 / sliced_threads=0 / nr=0 / decimate=1 / interlaced=0 / constrained_intra=0 / bframes=6 / b_pyramid=2 / b_adapt=2 / b_bias=0 / direct=3 / weightb=1 / open_gop=0 / weightp=2 / keyint=250 / keyint_min=23 / scenecut=40 / intra_refresh=0 / rc_lookahead=60 / rc=crf / mbtree=1 / crf=18.0 / qcomp=0.60 / qpmin=10 / qpmax=69 / qpstep=4 / ip_ratio=1.40 / aq=1:1.00
Audio
ID : 2
Format : AC-3
Format/Info : Audio Coding 3
Mode extension : CM (complete main)
Codec ID : A_AC3
Duration : 3mn 44s
Bit rate mode : Constant
Bit rate : 256 Kbps
Channel(s) : 2 channels
Channel positions : Front: L R
Sampling rate : 48.0 KHz
Bit depth : 16 bits
Compression mode : Lossy
Stream size : 6.86 MiB (1%)
Language : English
Скриншоты

[font='Times New Roman']Господа копипастеры, пожалуйста, уважайте труд рипперов -
не "забывайте" указывать авторство в своих релизах!
[/font]



Скачать книги и аудио книги через торрент


Вернуться к началу
 Профиль Отправить личное сообщение  
 
   Похожие торренты   Автор   Торрент   Размер 
В этой теме нет новых непрочитанных сообщений. [LegalPorno.com] Nilla Black discovers black feeling IV227 / 02.11.2018 [Gape, Anal, Interracial, DAP, Lingerie, 720p]

salma3

0 | 0

1.67 ГБ

В этой теме нет новых непрочитанных сообщений. [LegalPorno.com] Ciara Riviera discovers black feeling IV205 / 20.08.2018 [Gape, Anal, Interracial, Skinny, Gangbang, DAP, 480p]

salma3

1 | 0

1.07 ГБ

В этой теме нет новых непрочитанных сообщений. [LegalPorno.com] Sophia Laure has black feeling IV252 / 14.01.2019 [Big tits, DAP, Interracial, Gape, Gangbang, Anal, Fisting, DP, Lingerie, 480p]

salma3

0 | 0

767.05 МБ

В этой теме нет новых непрочитанных сообщений. [LegalPorno.com] Florane Russell discovers black feeling and two cocks in the ass IV226 / 29.10.2018 [Gangbang, Anal, Big tits, Lingerie, DAP, Gape, DP, Interracial, 480p]

salma3

0 | 0

1.03 ГБ

В этой теме нет новых непрочитанных сообщений. [LegalPorno.com] Helena Valentine discovers black feeling & high anal IV170 / 04.05.2018 [Anal, DP, Gangbang, Gape, A2M, Interracial, 480p]

salma3

0 | 0

1.02 ГБ

В этой теме нет новых непрочитанных сообщений. [LegalPorno.com] Helena Valentine discovers black feeling & high anal IV170 / 04.05.2018 [Anal, DP, Gangbang, Gape, A2M, Interracial, 720p]

salma3

0 | 0

1.82 ГБ

В этой теме нет новых непрочитанных сообщений. Лапочка / Honey [Драма, мелодрама, музыка, 2003] BDRip-AVC, Dub

salma3

2 | 0

745.74 МБ


Начать новую тему Ответить на тему  [ 1 сообщение ] 




Для Мосгорсуда, Роскомнадзора и рекламодателей:: rstracker[собака]yandex.ru
cron