COVID-19 - Последняя информация о коронавирусе на сайте Минздрава




Торрент файл
скачать торрент магнет ссылка Добавлен: 07 окт 2012, 21:21
Размер: 80.29 МБ
Сидеров: 10
Личеров: 5
Автор

СообщениеДобавлено: 07 окт 2012, 21:21 

Не в сети
Аватара пользователя
Дата регистрации:
28 ноя 2010, 22:22
Спасибо: 722 / 5
Сообщения: 2030
Звёздные войны эпизод 1 / Star Wars ep.1
Год выпуска: 2012
Страна: США
Студия: Lucasfilm
Жанр: трейлер
Продолжительность: 00:02:46
Перевод: Отсутствует
Русские субтитры: нет
Режиссер на русском: George Lucas
Режиссер на английском: Джордж Лукас
Описание: Трейлер фильма "Звёздные войны. Эпизод 1: Скрытая угроза".
Описание от kiv6412:Все шесть частей легендарной саги «Звездные войны» будут конвертированы в 3D и показаны на большом экране. Премьера первой части «Звездные войны: Эпизод 1 – Скрытая угроза» (Star Wars Episode I: The Phantom Menace) назначена на 10 февраля 2012 года.
Зрители, которые с нетерпением ждут этого события, смогут порадовать себя просмотром первого ролика к 3D-ленте «Звездные войны: Эпизод 1 – Скрытая угроза» (Star Wars Episode I: The Phantom Menace). Трейлер начинается со сцен шести частей киносаги, что сможет напомнить о необходимости просмотра всех эпизодов, конвертированных в 3D!
Меню: отсутствует
Качество: DVB
Контейнер: MKV
Формат 3D: Half SideBySide / Горизонтальная анаморфная стереопара
Порядок ракурсов: левый ракурс первый
Видео кодек: h.264
Аудио кодек: AC3
Видео: AVC, 1920x1080, 16:9, 3199 Кбит/сек, 25i
Аудио: Ac3, 384 Кбит/сек, 48 КГц, 5 каналов
Аудио 2: Ac3, 384 Кбит/сек, 48 КГц, 2 канала
Субтитры: отсутствуют
MediaInfo 0.7.53
Общее
Уникальный идентификатор : 186117578556309569075307971733681672338 (0x8C04F117F5A665C495241D488BE11092)
Полное имя : 3D_Star_wars_ep1_trailer.mkv
Формат : Matroska
Версия формата : Version 3 / Version 2
Размер файла : 80,3 Мбайт
Продолжительность : 2 м. 46 с.
Режим общего битрейта : Переменный
Общий поток : 4047 Кбит/сек
Название фильма : 3D Star Wars ep1 trailer
Дата кодирования : UTC 2012-01-28 10:27:19
Программа кодирования : mkvmerge v5.2.1 ('A Far Off Place') built on Jan 2 2012 23:21:10
Библиотека кодирования : libebml v1.2.3 + libmatroska v1.3.0
Видео
Идентификатор : 1
Формат : AVC
Формат/Информация : Advanced Video Codec
Профиль формата : High@L4.0
MultiView_Count : 2
MultiView_Layout : Side by Side (left eye first)
Параметр CABAC формата : Да
Параметр ReFrames формата : 3 кадра
Идентификатор кодека : V_MPEG4/ISO/AVC
Продолжительность : 2 м. 46 с.
Вид битрейта : Переменный
Битрейт : 3199 Кбит/сек
Максимальный битрейт : 40,0 Мбит/сек
Ширина : 1920 пикселей
Высота : 1080 пикселей
Соотношение сторон : 16:9
Частота кадров : 25,000 кадров/сек
Стандарт вещания : Component
Цветовое пространство : YUV
Субдискретизация насыщенности : 4:2:0
Битовая глубина : 8 бит
Тип развёртки : Чересстрочная
Порядок развёртки : Верхнее поле первое
Бит/(Пиксели*Кадры) : 0.062
Размер потока : 63,5 Мбайт (79%)
Заголовок : Video h.264
Язык : German
Default : Да
Forced : Нет
Основные цвета : BT.709-5, BT.1361, IEC 61966-2-4, SMPTE RP177
Характеристики трансфера : BT.709-5, BT.1361
Коэффициенты матрицы : BT.709-5, BT.1361, IEC 61966-2-4 709, SMPTE RP177
Аудио #1
Идентификатор : 2
Формат : AC-3
Формат/Информация : Audio Coding 3
Расширение режима : CM (complete main)
Идентификатор кодека : A_AC3
Продолжительность : 2 м. 46 с.
Вид битрейта : Постоянный
Битрейт : 384 Кбит/сек
Каналы : 5 каналов
Расположение каналов : Front: L C R, Side: L R
Частота : 48,0 КГц
Битовая глубина : 16 бит
Метод сжатия : С потерями
Размер потока : 7,62 Мбайт (9%)
Заголовок : AC3 5ch
Язык : German
Default : Да
Forced : Нет
Аудио #2
Идентификатор : 3
Формат : AC-3
Формат/Информация : Audio Coding 3
Расширение режима : CM (complete main)
Идентификатор кодека : A_AC3
Продолжительность : 2 м. 46 с.
Вид битрейта : Постоянный
Битрейт : 384 Кбит/сек
Каналы : 2 канала
Расположение каналов : Front: L R
Частота : 48,0 КГц
Битовая глубина : 16 бит
Метод сжатия : С потерями
Размер потока : 7,62 Мбайт (9%)
Заголовок : AC3 2ch
Язык : German
Default : Нет
Forced : Нет
Скриншоты
Дополнительная информация по релизу
У меня нет никакого 3D-оборудования, если что не так - пишите, сам посмотреть не могу.



Скачать книги и аудио книги через торрент


Вернуться к началу
 Профиль Отправить личное сообщение  
 
   Похожие торренты   Автор   Торрент   Размер 
В этой теме нет новых непрочитанных сообщений. Звездные войны: Войны клонов / Star Wars: The Clone Wars [S05] [мультсериал, фантастика, фэнтези, боевик, драма, приключения, семейный, 2012-2013] WEB-DL 1080p, Dub

K15

0 | 0

17.72 ГБ

В этой теме нет новых непрочитанных сообщений. Звездные войны: Войны клонов / Star Wars: The Clone Wars [S04] [мультсериал, фантастика, фэнтези, боевик, драма, приключения, семейный, 2011-2012] WEB-DL 1080p, Dub

K15

0 | 0

19.53 ГБ

В этой теме нет новых непрочитанных сообщений. Звездные войны. Эпизод 6: Возвращение Джедая / Star Wars Episode VI - Return of the Jedi [Фантастика, приключения, 1983] BDRip 720p, Dub

salma3

0 | 0

8.96 ГБ

В этой теме нет новых непрочитанных сообщений. Звездные войны. Эпизод 4: Новая Надежда / Star Wars Episode IV - A New Hope [Фантастика, приключения, 1977] BDRip 720p, Dub [Локализованная версия]

salma3

0 | 0

7.3 ГБ

В этой теме нет новых непрочитанных сообщений. Звездные войны: Войны Клонов / Star Wars: The Clone Wars [Фантастика, приключения, 2008] BDRip 720p, Dub

salma3

0 | 0

3.75 ГБ

В этой теме нет новых непрочитанных сообщений. Звездные войны. Эпизод 5: Империя наносит ответный удар / Star Wars Episode V - The Empire Strikes Back [Фантастика, приключения, 1980] BDRip 720p, Dub

salma3

0 | 0

7 ГБ

В этой теме нет новых непрочитанных сообщений. Звездные войны: Войны клонов / Star Wars: The Clone Wars [S06] [мультсериал, фантастика, фэнтези, боевик, драма, приключения, семейный, 2014] BDRip 1080p, Dub

K15

0 | 0

11.67 ГБ


Начать новую тему Ответить на тему  [ 1 сообщение ] 




Для Мосгорсуда, Роскомнадзора и рекламодателей:: rstracker[собака]yandex.ru
cron