COVID-19 - Последняя информация о коронавирусе на сайте Минздрава




Торрент файл
скачать торрент магнет ссылка Добавлен: 07 окт 2012, 21:21
Размер: 546.17 МБ
Сидеров: 2
Личеров: 3
Автор

СообщениеДобавлено: 07 окт 2012, 21:21 

Не в сети
Аватара пользователя
Дата регистрации:
28 ноя 2010, 22:22
Спасибо: 722 / 5
Сообщения: 2030
Экскурсия в аквариуме и террариуме (дельфинарий Немо).
Год выпуска: 2012
Страна: Украина
Жанр: любительская сьемка
Продолжительность: 00:14:10
Перевод: Не требуется
Русские субтитры: нет
Описание: Фото сессия аквариума и террариума, которые находятся в дельфинарии "Немо" в г.Харькове (рядом с зоопарком). Фотографии собраны в видео файл для просмотра на телевизорах поддерживающих функцию 3D.
Сложно очень фотографировать плавающих рыбок, очень часто фото получается размытым, поэтому строго не судим 8). Рекомендую всем посетить этот дельфинарий, кто проездом, оно того стоит, чтобы посмотреть в живую.
Качество: HDTV
Контейнер: AVI
Формат 3D: Half SideBySide / Горизонтальная анаморфная стереопара
Порядок ракурсов: левый ракурс первый
Видео кодек: xVid
Аудио кодек: MP3
Видео: XVID 5257 Kbps 1920х1080 16:9 25.000 fps
Аудио: MP3 2 channels 128 Kbps 44.1 KHz
MediaInfo
General
Complete name : 3D_Nemo_Acuarium_Terrarium_Harkov.avi
Format : AVI
Format/Info : Audio Video Interleave
File size : 546 MiB
Duration : 14mn 10s
Overall bit rate : 5 390 Kbps
Video
ID : 0
Format : MPEG-4 Visual
Format profile : Advanced Simple@L5
Format settings, BVOP : 2
Format settings, QPel : No
Format settings, GMC : No warppoints
Format settings, Matrix : Default (H.263)
Muxing mode : Packed bitstream
Codec ID : XVID
Codec ID/Hint : XviD
Duration : 14mn 10s
Bit rate : 5 257 Kbps
Width : 1 920 pixels
Height : 1 080 pixels
Display aspect ratio : 16:9
Frame rate : 25.000 fps
Color space : YUV
Chroma subsampling : 4:2:0
Bit depth : 8 bits
Scan type : Progressive
Compression mode : Lossy
Bits/(Pixel*Frame) : 0.101
Stream size : 533 MiB (98%)
Writing library : XviD 64
Audio
ID : 1
Format : MPEG Audio
Format version : Version 1
Format profile : Layer 3
Mode : Joint stereo
Mode extension : MS Stereo
Codec ID : 55
Codec ID/Hint : MP3
Duration : 14mn 10s
Bit rate mode : Constant
Bit rate : 128 Kbps
Channel(s) : 2 channels
Sampling rate : 44.1 KHz
Compression mode : Lossy
Stream size : 12.9 MiB (2%)
Alignment : Aligned on interleaves
Interleave, duration : 1000 ms (25.00 video frames)
Скриншоты







Скачать книги и аудио книги через торрент


Вернуться к началу
 Профиль Отправить личное сообщение  
 
   Похожие торренты   Автор   Торрент   Размер 
В этой теме нет новых непрочитанных сообщений. Любительская русская пара (2018) CamRip

Dievas

406 | 198

261.77 МБ

В этой теме нет новых непрочитанных сообщений. Экскурсия / Excursion [Фантастика, триллер, детектив, 2019] WEB-DL 1080p, Mvo

salma3

0 | 0

5.66 ГБ

В этой теме нет новых непрочитанных сообщений. Экскурсия / Excursion [Фантастика, триллер, детектив, 2019] WEB-DLRip-AVC, Mvo

salma3

302 | 92

1.46 ГБ

В этой теме нет новых непрочитанных сообщений. Amateur 3Some Sex Tapes / Любительская Пленка Втроем (Reality Kings) [2018 г., Amateur, Gonzo, Threesomes, DVDRip]

salma3

0 | 0

2.16 ГБ

В этой теме нет новых непрочитанных сообщений. Bibixxx - Мое грязное хобби / My Dirty Hobby / 9 Videos (2012-2018) CAMRip

zorgi

0 | 0

2.82 ГБ

В этой теме нет новых непрочитанных сообщений. Anna - Убойное домашнее порно Русской девчонки / Homemade porn of Russian girl (2012) CAMRip

zorgi

97 | 6

491.94 МБ

В этой теме нет новых непрочитанных сообщений. Suelyn Medeiros - Домашнее блядство бразильской топ-модели попавшее в сеть / Sex Tape (2012) CAMRip

zorgi

79 | 5

131.54 МБ


Начать новую тему Ответить на тему  [ 1 сообщение ] 




Для Мосгорсуда, Роскомнадзора и рекламодателей:: rstracker[собака]yandex.ru
cron