COVID-19 - Последняя информация о коронавирусе на сайте Минздрава




Торрент файл
скачать торрент магнет ссылка Добавлен: 07 окт 2012, 21:20
Размер: 5.07 ГБ
Сидеров: 42
Личеров: 10
Автор

СообщениеДобавлено: 07 окт 2012, 21:20 

Не в сети
Аватара пользователя
Дата регистрации:
28 ноя 2010, 22:22
Спасибо: 722 / 5
Сообщения: 2030
Лунный свет 3Д / Lichtmond 3D
Год выпуска: 2010
Страна: Германия
Студия: Avenue Music (Alive)
Жанр: Видовой, релакс
Продолжительность: 00:48:47
Перевод: Не требуется
Русские субтитры: нет
Режиссер на русском: Джорджио и Мартин Коппехели
Режиссер на английском: Giorgio & Martin Koppehele
Описание:
Братья Джорджио и Мартин Коппехели (Avenue Music), авторы пользующейся заслуженной популярностью среди любителей многоканальной музыки, и не только, серии Ambra, представляют новый проект - "Lichtmond" ("Лунный свет"). Визуальная часть представляет собой анимацию испанского художника-мультипликатора Diego M. Bonati, студия Imago-D - фантастические миры, созданные специально для "Lichtmond".
Треклист:
01. Erwachen
02. Morgenrot
03. Philosophy of Love
04. Fruhlingstanzerin
05. Wenn des Mondes Strahl
06. Der Orangenzweig
07. Ich und Du
08. Sounds of Distance
09. Sonnenlicht
10. Shine on me
11. Serenity
12. Tal der Liebe
13. Flying over the Ocean
14. Abendrot
15. Fruhlingstanzerin (Single Mix)
16. Fruhlingstanzerin (Martyn Ware and Heaven 17 Club Remix)
Качество: BDrip
Контейнер: MKV
Формат 3D: Half SideBySide / Горизонтальная анаморфная стереопара
Порядок ракурсов: левый ракурс первый
Видео кодек: x264
Аудио кодек: DTS
Видео: MPEG4 Video (H264) 1920x1080p 23.98fps 13100 kbps
Аудио: DTS 48000Hz 5.1ch 1510 Kbps
MediaInfo
General
Unique ID : 186395381310158564381789435919914368145 (0x8C3A71D3AB68209F9624493181C1FC91)
Complete name : Lichtmond.3D.2011.DTS.1080p.3DBD.X264.Half.SBS.z-man.EX-3DBLURAYISOTEAM.mkv
Format : Matroska
File size : 5.07 GiB
Duration : 48mn 47s
Overall bit rate : 14.9 Mbps
Encoded date : UTC 2011-07-01 15:36:28
Writing application : mkvmerge v4.4.0 ('Die Wiederkehr') gebaut am Oct 31 2010 21:52:48
Writing library : libebml v1.0.0 + libmatroska v1.0.0
Video
ID : 1
Format : AVC
Format/Info : Advanced Video Codec
Format profile : High@L4.1
Format settings, CABAC : Yes
Format settings, ReFrames : 4 frames
Muxing mode : Container profile=Unknown@0.0
Codec ID : V_MPEG4/ISO/AVC
Duration : 48mn 47s
Bit rate : 13.1 Mbps
Width : 1 920 pixels
Height : 1 080 pixels
Display aspect ratio : 16:9
Frame rate : 23.976 fps
Color space : YUV
Chroma subsampling : 4:2:0
Bit depth : 8 bits
Scan type : Progressive
Bits/(Pixel*Frame) : 0.263
Stream size : 4.45 GiB (88%)
Title : Lichtmond.3D.2011.DTS.1080p.3DBD.X264.Half.SBS.z-man.EX-3DBLURAYISOTEAM
Writing library : x264 core 115 r2008 4c552d8
Encoding settings : cabac=1 / ref=4 / deblock=1:-1:-1 / analyse=0x3:0x113 / me=umh / subme=7 / psy=1 / psy_rd=1.00:0.15 / mixed_ref=1 / me_range=16 / chroma_me=1 / trellis=1 / 8x8dct=1 / cqm=0 / deadzone=21,11 / fast_pskip=1 / chroma_qp_offset=-3 / threads=18 / sliced_threads=0 / nr=0 / decimate=1 / interlaced=0 / bluray_compat=0 / constrained_intra=0 / bframes=3 / b_pyramid=2 / b_adapt=1 / b_bias=0 / direct=3 / weightb=1 / open_gop=0 / weightp=2 / keyint=250 / keyint_min=23 / scenecut=40 / intra_refresh=0 / rc_lookahead=40 / rc=crf / mbtree=1 / crf=18.0 / qcomp=0.60 / qpmin=10 / qpmax=69 / qpstep=4 / ip_ratio=1.40 / aq=1:1.00
Audio
ID : 2
Format : DTS
Format/Info : Digital Theater Systems
Codec ID : A_DTS
Duration : 48mn 47s
Bit rate mode : Constant
Bit rate : 1 510 Kbps
Channel(s) : 6 channels
Channel positions : Front: L C R, Side: L R, LFE
Sampling rate : 48.0 KHz
Bit depth : 24 bits
Compression mode : Lossy
Stream size : 527 MiB (10%)
Скриншоты





Скачать книги и аудио книги через торрент


Вернуться к началу
 Профиль Отправить личное сообщение  
 
   Похожие торренты   Автор   Торрент   Размер 
В этой теме нет новых непрочитанных сообщений. Лунный гонщик / Moonraker [боевик, триллер, приключения, 1979] BDRip-HEVC 1080p, Dub [50th Anniversary Edition]

salma3

0 | 0

9.69 ГБ

В этой теме нет новых непрочитанных сообщений. [FirstAnalQuest.com] Denise Martin - Teen Gaping Anal On Christmas With Cute Denise Martin! (530 / 01.01.19) [2019 г., Amateur, Anal, Blowjob, Hardcore, Cumshots, Cum In Mouth, Dildo, Anal Fisting, HDRip, 1080p]

salma3

0 | 0

1.69 ГБ

В этой теме нет новых непрочитанных сообщений. [FirstAnalQuest.com] Denise Martin - Teen Gaping Anal On Christmas With Cute Denise Martin! (530 / 01.01.19) [2019 г., Amateur, Anal, Blowjob, Hardcore, Cumshots, Cum In Mouth, Dildo, Anal Fisting, SiteRip, 450p]

salma3

0 | 0

483.35 МБ

В этой теме нет новых непрочитанных сообщений. Сверхъестественное / Первый свет / First Light [Триллер, 2018] BDRip, Dub [iTunes]

salma3

399 | 38

1.42 ГБ

В этой теме нет новых непрочитанных сообщений. Свет моей жизни / Light of My Life [Драма, 2019] BDRip, Dub [iTunes]

salma3

4 | 1

1.47 ГБ

В этой теме нет новых непрочитанных сообщений. Свет во тьме / Shining Through [Триллер, драма, мелодрама, 1992] BDRip 1080p, Mvo

salma3

0 | 0

11.65 ГБ

В этой теме нет новых непрочитанных сообщений. Свет во тьме / Shining Through [Триллер, драма, мелодрама, 1992] BDRip 720p, Mvo

salma3

0 | 0

8.49 ГБ


Начать новую тему Ответить на тему  [ 1 сообщение ] 




Для Мосгорсуда, Роскомнадзора и рекламодателей:: rstracker[собака]yandex.ru
cron