Торрент файл
скачать торрент магнет ссылка Добавлен: 30 дек 2014, 20:31
Размер: 3.37 ГБ
Сидеров: 104
Личеров: 3
Автор

СообщениеДобавлено: 30 дек 2014, 20:31 

Не в сети
Зам. Админа
Аватара пользователя
Дата регистрации:
02 дек 2010, 12:39
Спасибо: 12620 / 214
Сообщения: 28049


Год выпуска: 2014
Страна: Великобритания (Colossus Productions, Sky TV)
Жанр: Документальный, Видовой
Продолжительность: 1:06:51

Перевод: Субтитры

Режиссер: Дэниэл М. Смит / Daniel M. Smith
Автор сценария и Рассказчик: Дэвид Аттенборо / David Attenborough



Описание: Дэвид Аттенборо приглашает зрителей в путешествие по Лондонскому музею естествознания. Когда двери музея заперты и наступает ночь, Аттенборо рассказывает о некоторых из самых увлекательных вымерших животных, которые оживают на его глазах: динозавры, фауна ледникового периода и гигантские рептилии.



Премьера (мир): 1 января 2014





Качество: BDRip (by Ash61)
Контейнер: MKV
Формат 3D: Half OverUnder / Вертикальная анаморфная стереопара
Порядок ракурсов: левый ракурс первый
Видео кодек: x264
Аудио кодек: AC3



Видео: AVC / 23,976 fps / 1920х1080p / ~6.6 Mbps

Аудио: Английский / AC3 / 48 KHz / 2 ch / 448 Kbps (Original - BD 3D)

Субтитры: (SRT)
Вшитые (softsub):
#1 - Русские Полные (включены по умолчанию) [перевод любительский - Ash61]
#2 - English Full

Внешние (UTF-8):
#1 - Русские Полные (включены по умолчанию) [перевод любительский - Ash61]

General
Unique ID : 254900512770769904849841649199423380639 (0xBFC40D93EE2E4DB29218B28F8DC35C9F)
Complete name : E:DavidAttenborough'sNaturalHistoryMuseumAlive(2014)3D-halfOU(Ash61)Rus.SubsDavidAttenborough'sNaturalHistoryMuseumAlive(2014)3D-halfOU(Ash61)Rus.Subs.mkv
Format : Matroska
Format version : Version 2
File size : 3.37 GiB
Duration : 1h 6mn
Overall bit rate : 7 207 Kbps
Movie name : Лондонский Музей естествознания Вживую с Дэвидом Аттенборо / David Attenborough's Natural History Museum Alive (2014) 3D
Encoded date : UTC 2014-12-29 18:59:09
Writing application : mkvmerge v5.8.0 ('No Sleep / Pillow') built on Sep 2 2012 15:37:04
Writing library : libebml v1.2.3 + libmatroska v1.3.0

Video
ID : 1
Format : AVC
Format/Info : Advanced Video Codec
Format profile : High@L4.1
Format settings, CABAC : Yes
Format settings, ReFrames : 4 frames
Codec ID : V_MPEG4/ISO/AVC
Duration : 1h 6mn
Bit rate : 6 615 Kbps
Width : 1 920 pixels
Height : 1 080 pixels
Display aspect ratio : 16:9
Frame rate mode : Constant
Frame rate : 23.976 fps
Color space : YUV
Chroma subsampling : 4:2:0
Bit depth : 8 bits
Scan type : Progressive
Bits/(Pixel*Frame) : 0.133
Stream size : 3.09 GiB (92%)
Title : BDRip by Ash61
Writing library : x264 core 138 r2358 9e941d1
Encoding settings : cabac=1 / ref=4 / deblock=1:-3:-3 / analyse=0x3:0x113 / me=umh / subme=10 / psy=1 / psy_rd=1.00:0.00 / mixed_ref=1 / me_range=32 / chroma_me=1 / trellis=2 / 8x8dct=1 / cqm=0 / deadzone=21,11 / fast_pskip=1 / chroma_qp_offset=-2 / threads=12 / lookahead_threads=2 / sliced_threads=0 / nr=0 / decimate=1 / interlaced=0 / bluray_compat=0 / constrained_intra=0 / bframes=8 / b_pyramid=2 / b_adapt=2 / b_bias=0 / direct=3 / weightb=1 / open_gop=0 / weightp=2 / keyint=250 / keyint_min=23 / scenecut=40 / intra_refresh=0 / rc_lookahead=60 / rc=crf / mbtree=1 / crf=17.0 / qcomp=0.70 / qpmin=0 / qpmax=69 / qpstep=4 / vbv_maxrate=40000 / vbv_bufsize=30000 / crf_max=0.0 / nal_hrd=none / frame-packing=4 / ip_ratio=1.40 / aq=1:0.70
Language : English
Default : Yes
Forced : No

Audio
ID : 2
Format : AC-3
Format/Info : Audio Coding 3
Mode extension : CM (complete main)
Format settings, Endianness : Big
Codec ID : A_AC3
Duration : 1h 6mn
Bit rate mode : Constant
Bit rate : 448 Kbps
Channel(s) : 2 channels
Channel positions : Front: L R
Sampling rate : 48.0 KHz
Bit depth : 16 bits
Compression mode : Lossy
Stream size : 214 MiB (6%)
Title : Original - BD 3D
Language : English
Default : Yes
Forced : No

Text #1
ID : 3
Format : UTF-8
Codec ID : S_TEXT/UTF8
Codec ID/Info : UTF-8 Plain Text
Title : Полные (перевод любительский - Ash61)
Language : Russian
Default : Yes
Forced : No

Text #2
ID : 4
Format : UTF-8
Codec ID : S_TEXT/UTF8
Codec ID/Info : UTF-8 Plain Text
Title : Full - BD 3D
Language : English
Default : No
Forced : No

Menu
00:00:00.000 : :1. Archaeopteryx
00:08:31.469 : :2. Giant Moa
00:18:29.942 : :3. Dodo
00:36:42.826 : :4. Gigantophis
00:46:47.805 : :5. The Dinosaurs
00:55:21.652 : :6. Dippy




реклама партнёра


Вернуться к началу
 Профиль  
 
   Похожие торренты   Автор   Торрент   Размер 
В этой теме нет новых непрочитанных сообщений. Вызов бездне 3D  / Deepsea Challenge 3D (Джон Бруно, Рэй Квинт, Эндрю Уайт) [документальный, научно-познавательный, океанография, 2014] BDRip 1080p, mvo [HSBS | 3D-Video | Чистый звук]

Dracon

34 | 26

6.66 ГБ

В этой теме нет новых непрочитанных сообщений. Музей восковых фигур 2: Затерянные во времени / Waxwork II: Lost in Time [ужасы, фантастика, фэнтези, комедия, 1992] BDRip 1080p, Mvvo

salma3

44 | 52

13.85 ГБ

В этой теме нет новых непрочитанных сообщений. Заколдованное королевство 3Д / Enchanted Kingdom 3D [Документальный, 2013] BDRip 1080p, Avo+sub [3D-Video]

Dracon

824 | 124

13.39 ГБ

В этой теме нет новых непрочитанных сообщений. Ной / Noah [Драма, приключения, 2014] BDRip 1080p, Dub+Sub [3D-Video | HSBS | 60 fps]

Dracon

146 | 10

16.64 ГБ

В этой теме нет новых непрочитанных сообщений. Час призраков 2 / 3 АМ 2 /Ti sam khuen sam [Ужасы, 2014] BDRip 1080p, Dub [Лицензия | 3D-Video]

Dracon

103 | 28

9.26 ГБ

В этой теме нет новых непрочитанных сообщений. Геракл / Hercules [боевик, Приключения, 2014] BDRip 1080p, Dub+Sub [3D-Video | Лицензия]

Dracon

345 | 25

8.41 ГБ

В этой теме нет новых непрочитанных сообщений. Геракл / Hercules [боевик, Приключения, 2014] BDRip 1080p, dub [3D-Video | Чистый звук]

Dracon

356 | 26

8.15 ГБ


Начать новую тему Ответить на тему  [ 1 сообщение ] 




Для Мосгорсуда, Роскомнадзора и рекламодателей:: mosgorsud-torrent[собачка]yandex.ru