Торрент файл
скачать торрент магнет ссылка Добавлен: 08 май 2012, 15:41
Размер: 3.23 ГБ
Сидеров: 16
Личеров: 10
Автор

СообщениеДобавлено: 08 май 2012, 15:41 

Не в сети
Супермодератор
Аватара пользователя
Дата регистрации:
11 апр 2010, 18:10
Спасибо: 5953 / 7
Сообщения: 56776
Телескоп Хаббл в 3D / Hubble 3D Страна: США
Жанр: Документальный
Год выпуска: 2010
Продолжительность: 00:44:00
Перевод: Отсутствует
Русские субтитры: нет
Режиссер: Тони Майерс
В ролях: Леонардо Ди Каприо, К. Меган МакАртур, Скотт Д. Олтмэн, Майкл Т. Гуд, John M. Grunsfeld, Грегори С. Джонсон, Майкл Дж. Массимино
Описание: Используя визуальную мощь кинотеатров IMAX®, Hubble 3D позволит кинозрителям путешествовать через отдаленные галактики, исследовать великолепие и тайны нашей вселенной, и сопровождать работу астронавтов, на плечи которых возложены самые трудные и важные задачи в истории НАСА. Благодаря космическому телескопу Хаббл мы увидим вселенную такой, какой ее только можно увидеть в космосе с помощью самого мощного в мире телескопа.

Качество: BDrip
Формат: MKV
Формат 3D: Half SideBySide / Горизонтальная анаморфная стереопара
Порядок ракурсов: Параллельная пара
Видео кодек: x264
Аудио кодек: DTS
Видео: MPEG4 Video (H264) 1920x1080p 23.98fps 8791 Kbps
Аудио: Английский DTS 48000Hz 6ch 1510kbps
me
Format : Matroska
File size : 3.23 GiB
Duration : 43mn 59s
Overall bit rate : 10.5 Mbps
Encoded date : UTC 2011-04-02 13:44:34
Writing application : mkvmerge v2.9.7 ('Tenderness') built on Jul 1 2009 18:43:35
Writing library : libebml v0.7.7 + libmatroska v0.8.1
Video
ID : 1
Format : AVC
Format/Info : Advanced Video Codec
Format profile : High@L4.0
Format settings, CABAC : Yes
Format settings, ReFrames : 4 frames
Muxing mode : Container profile=Unknown@4.0
Codec ID : V_MPEG4/ISO/AVC
Duration : 43mn 59s
Bit rate : 8 791 Kbps
Width : 1 920 pixels
Height : 1 080 pixels
Display aspect ratio : 16:9
Frame rate : 23.976 fps
Color space : YUV
Chroma subsampling : 4:2:0
Bit depth : 8 bits
Scan type : Progressive
Bits/(Pixel*Frame) : 0.177
Stream size : 2.70 GiB (84%)
Writing library : x264 core 114 r1924 08d04a4
Encoding settings : cabac=1 / ref=4 / deblock=1:-2:-2 / analyse=0x3:0x113 / me=umh / subme=7 / psy=1 / psy_rd=1.00:0.15 / mixed_ref=1 / me_range=16 / chroma_me=1 / trellis=2 / 8x8dct=1 / cqm=0 / deadzone=21,11 / fast_pskip=1 / chroma_qp_offset=-3 / threads=6 / sliced_threads=0 / nr=0 / decimate=1 / interlaced=0 / constrained_intra=0 / bframes=6 / b_pyramid=0 / b_adapt=2 / b_bias=0 / direct=3 / weightb=1 / open_gop=0 / weightp=2 / keyint=250 / keyint_min=23 / scenecut=40 / intra_refresh=0 / rc_lookahead=40 / rc=crf / mbtree=1 / crf=18.0 / qcomp=0.60 / qpmin=10 / qpmax=51 / qpstep=4 / ip_ratio=1.40 / aq=1:1.00
Language : English
Audio
ID : 2
Format : DTS
Format/Info : Digital Theater Systems
Codec ID : A_DTS
Duration : 43mn 59s
Bit rate mode : Constant
Bit rate : 1 510 Kbps
Channel(s) : 6 channels
Channel positions : Front: L C R, Side: L R, LFE
Sampling rate : 48.0 KHz
Bit depth : 24 bits
Stream size : 475 MiB (14%)
Language : English
Скриншоты




реклама партнёра


Вернуться к началу
 Профиль Отправить личное сообщение  
 
   Похожие торренты   Автор   Торрент   Размер 
В этой теме нет новых непрочитанных сообщений. Тони Эрдманн / Toni Erdmann [драма, комедия, 2016] BDRip-AVC, Mvo [iTunes]

salma3

143 | 48

1.46 ГБ

В этой теме нет новых непрочитанных сообщений. Тони Эрдманн / Toni Erdmann [драма, комедия, 2016] BDRip 1080p, Mvo [iTunes]

salma3

3 | 59

19.32 ГБ

В этой теме нет новых непрочитанных сообщений. Discovery: Сканируя небо. Телескоп Discovery Channel / Discovery: Scanning the skies. The discovery channel telescope (Тони Бекон, Натан Хэндри) [2012, документальный, SATRip] AVO

salma3

0 | 1

379.98 МБ

В этой теме нет новых непрочитанных сообщений. Тони Эрдманн / Toni Erdmann [комедия, драма, 2016] HDRip, Mvo [iTunes]

salma3

599 | 40

1.37 ГБ

В этой теме нет новых непрочитанных сообщений. Toni's Fucklist #2 - Choked, Slapped and Fucked / Трахательный Список Toni #2 (2016) WEB-DL

amadei

3 | 7

2.45 ГБ

В этой теме нет новых непрочитанных сообщений. Стажер / The Intern (Нэнси Майерс) [Комедия, 2015] BDRip, Dub [Лицензия]

Dracon

1013 | 69

1.46 ГБ

В этой теме нет новых непрочитанных сообщений. Стажер / The Intern (Нэнси Майерс) [Комедия, 2015] BDRip-AVC, Dub+Sub [Лицензия]

Dracon

1590 | 152

2.9 ГБ


Начать новую тему Ответить на тему  [ 1 сообщение ] 




Для Мосгорсуда, Роскомнадзора и рекламодателей:: mosgorsud-torrent[собачка]yandex.ru