Торрент файл
скачать торрент магнет ссылка Добавлен: 08 май 2012, 15:41
Размер: 6.59 ГБ
Сидеров: 19
Личеров: 10
Автор

СообщениеДобавлено: 08 май 2012, 15:41 

Не в сети
Супермодератор
Аватара пользователя
Дата регистрации:
11 апр 2010, 18:10
Спасибо: 5879 / 7
Сообщения: 56778
Волшебный лес в 3Д / Magic Forest 3DГод выхода: 2010
Выпущено: США
Жанр: документальный, видовой, релакс
Продолжительность: 00:53:55
Перевод: не требуется
Русские субтитры: нет
Режиссер: Marton Prech
Описание: В фильме показаны красоты венгерского национального парка Bukk, под расслабляющую музыку из альбома Szabolcs Kovi Glamour.


Качество: BDrip
Формат: MKV
Формат 3D: Half SideBySide / Горизонтальная анаморфная стереопара
Порядок ракурсов: Параллельная пара
Видео кодек: x264
Аудио кодек: DTS
Видео: MPEG4 Video (H264) 1920x1080p 23.98fps 16.0 Mbps
Аудио: German: DTS 48000Hz 5.1ch 1510kbps
me
Format : Matroska
File size : 6.59 GiB
Duration : 53mn 55s
Overall bit rate : 17.5 Mbps
Encoded date : UTC 2011-03-25 17:15:54
Writing application : mkvmerge v2.9.7 ('Tenderness') built on Jul 1 2009 18:43:35
Writing library : libebml v0.7.7 + libmatroska v0.8.1
Video
ID : 1
Format : AVC
Format/Info : Advanced Video Codec
Format profile : High@L4.1
Format settings, CABAC : Yes
Format settings, ReFrames : 4 frames
Muxing mode : Container profile=Unknown@4.1
Codec ID : V_MPEG4/ISO/AVC
Duration : 53mn 55s
Bit rate : 16.0 Mbps
Width : 1 920 pixels
Height : 1 080 pixels
Display aspect ratio : 16:9
Frame rate : 23.976 fps
Color space : YUV
Chroma subsampling : 4:2:0
Bit depth : 8 bits
Scan type : Progressive
Bits/(Pixel*Frame) : 0.322
Stream size : 5.89 GiB (89%)
Writing library : x264 core 114 r1924 08d04a4
Encoding settings : cabac=1 / ref=4 / deblock=1:-1:-1 / analyse=0x3:0x113 / me=umh / subme=9 / psy=1 / psy_rd=1.00:0.15 / mixed_ref=1 / me_range=16 / chroma_me=1 / trellis=1 / 8x8dct=1 / cqm=0 / deadzone=21,11 / fast_pskip=1 / chroma_qp_offset=-3 / threads=18 / sliced_threads=0 / nr=0 / decimate=1 / interlaced=0 / constrained_intra=0 / bframes=3 / b_pyramid=2 / b_adapt=1 / b_bias=0 / direct=1 / weightb=1 / open_gop=0 / weightp=2 / keyint=250 / keyint_min=23 / scenecut=40 / intra_refresh=0 / rc_lookahead=40 / rc=2pass / mbtree=1 / bitrate=16000 / ratetol=1.0 / qcomp=0.60 / qpmin=0 / qpmax=69 / qpstep=4 / cplxblur=20.0 / qblur=0.5 / ip_ratio=1.40 / aq=1:1.00
Language : English
Audio
ID : 2
Format : DTS
Format/Info : Digital Theater Systems
Codec ID : A_DTS
Duration : 53mn 55s
Bit rate mode : Constant
Bit rate : 1 510 Kbps
Channel(s) : 6 channels
Channel positions : Front: L C R, Side: L R, LFE
Sampling rate : 48.0 KHz
Bit depth : 24 bits
Stream size : 582 MiB (9%)
Language : German
Скриншоты




реклама партнёра


Вернуться к началу
 Профиль Отправить личное сообщение  
 
   Похожие торренты   Автор   Торрент   Размер 
В этой теме нет новых непрочитанных сообщений. Романтические города: Карнавал в Венеции / Romantic City: Carnival in Venice (Жан Люк Беррау) [2010, Документальный, демо, релакс, видовой, путешествие, туризм, города, BDRip 720p]

Nickolas3435

21 | 6

2.16 ГБ

В этой теме нет новых непрочитанных сообщений. Океан мечты: Наслаждение красотой моря / Ocean Dreams: Enjoy the Powerful Beauty of the Sea (Сэм Уивер) [2013, Документальный, видовой, музыка, релакс, BDRip 720p]

Nickolas3435

168 | 13

3.6 ГБ

В этой теме нет новых непрочитанных сообщений. Волшебный Пудинг / The Magic Pudding [мультфильм, семейный, приключения, 2000] DVDRip, Mvo

salma3

6 | 1

1.45 ГБ

В этой теме нет новых непрочитанных сообщений. Феникс и волшебный ковер / The Phoenix and the Magic Carpet [фэнтези, приключения, семейный, 1995] DVDRip, Mvo

salma3

53 | 9

1.46 ГБ

В этой теме нет новых непрочитанных сообщений. Лондонский Музей естествознания вживую / Natural History Museum Alive [Документальный, Видовой, 2014] BDRip 1080p [3D-Video] Рус.субтитры

Dracon

104 | 3

3.37 ГБ

В этой теме нет новых непрочитанных сообщений. Amberian Dawn - Magic Forest (Limited Edition) [2014, Symphonic Power Metal, Neoclassical Power Metal, MP3]

PriZraK

0 | 1

106.34 МБ

В этой теме нет новых непрочитанных сообщений. Amberian Dawn - Magic Forest (Japanese Edition) [2014, Symphonic Power Metal, Neoclassical Power Metal, MP3]

PriZraK

1 | 1

97.91 МБ


Начать новую тему Ответить на тему  [ 1 сообщение ] 




Для Мосгорсуда, Роскомнадзора и рекламодателей:: mosgorsud-torrent[собачка]yandex.ru